Gipsy Kings • Savor Flamenco Live [2013, Gipsy Rumba, Flamenco, HDTVRip 1080i]

Страницы:  1

Ответить
Автор
Сообщение

meloman67

Moderator

Стаж: 10 лет 3 месяца

Сообщений: 6262

meloman67 · 03-Июл-15 10:22 (4 года назад, ред. 05-Июл-15 17:32)

Данный релиз предназначен для ознакомления.

Savor Flamenco Live
Live at Humphrey's Concerts By The Bay, San Diego, CA, USA 31 July 2013


Жанр: Gipsy Rumba, Flamenco
Продолжительность: 01:25:18
Год выпуска: 2013
Качество: HDTVRip 1080i
Контейнер: mkv
Видео кодек: H.264
Аудио кодек: AC3
Видео: MPEG4 Video (H264) 1920x1080 (967:540) 29.97fps 8 000 Kbps
Аудио: Dolby AC3 48000Hz 6ch 640kbps
Треклист (спасибо "cheh55")
1. INTRO
2. A TI A TI
3. RUMBA TECH
4. LA NEGRA
5. CUBA
6. SAMBA SAMBA
7. A TU VERA
8. YO SO QUEL
9. FAIRIES
10. UN AMOR
11. DJOBI DJOBA
12. TAMPA
13. CARAMELO
14. PENA PENITA
15. LA QUIERO
16. SABROSO
17. BAMBOLEO
18. VOLARE
Отчёт MediaInfo / BDInfo
General
Unique ID : 230156602824226673940060083778342606417 (0xAD268CA0BE83B830AB8FAFDF10AFD651)
Complete name : E:\Gipsy Kings - Savor Flamenco Live 2013.mkv
Format : Matroska
Format version : Version 4 / Version 2
File size : 5.15 GiB
Duration : 1h 25mn
Overall bit rate : 8 642 Kbps
Encoded date : UTC 2015-07-03 06:52:51
Writing application : mkvmerge v8.1.0 ('Psychedelic Postcard') 64bit
Writing library : libebml v1.3.1 + libmatroska v1.4.2
DURATION : 01:25:17.472000000
NUMBER_OF_FRAMES : 159921
NUMBER_OF_BYTES : 409397760
_STATISTICS_WRITING_APP : mkvmerge v8.1.0 ('Psychedelic Postcard') 64bit
_STATISTICS_WRITING_DATE_UTC : 2015-07-03 06:52:51
_STATISTICS_TAGS : BPS DURATION NUMBER_OF_FRAMES NUMBER_OF_BYTES
Video
ID : 1
Format : AVC
Format/Info : Advanced Video Codec
Format profile : [email protected]
Format settings, CABAC : Yes
Format settings, ReFrames : 16 frames
Codec ID : V_MPEG4/ISO/AVC
Duration : 1h 25mn
Bit rate : 8 000 Kbps
Width : 1 920 pixels
Height : 1 080 pixels
Display aspect ratio : 16:9
Frame rate mode : Constant
Frame rate : 29.970 fps
Color space : YUV
Chroma subsampling : 4:2:0
Bit depth : 8 bits
Scan type : Progressive
Bits/(Pixel*Frame) : 0.129
Stream size : 4.66 GiB (91%)
Writing library : x264 core 146 r2538kMod 121396c
Encoding settings : cabac=1 / ref=16 / deblock=1:0:0 / analyse=0x3:0x133 /
me=umh / subme=10 / psy=1 / fade_compensate=0.00 / psy_rd=1.00:0.00 /
mixed_ref=1 / me_range=24 / chroma_me=1 / trellis=2 / 8x8dct=1 / cqm=0 /
deadzone=21,11 / fast_pskip=1 / chroma_qp_offset=-2 / threads=18 / lookahead_threads=3 /
sliced_threads=0 / nr=0 / decimate=1 / interlaced=0 / bluray_compat=0 /
constrained_intra=0 / fgo=0 / bframes=8 / b_pyramid=2 / b_adapt=2 /
b_bias=0 / direct=3 / weightb=1 / open_gop=0 / weightp=2 / keyint=250 /
keyint_min=25 / scenecut=40 / intra_refresh=0 / rc_lookahead=60 /
rc=2pass / mbtree=1 / bitrate=8000 / ratetol=1.0 / qcomp=0.60 / qpmin=0 /
qpmax=69 / qpstep=4 / cplxblur=20.0 / qblur=0.5 / ip_ratio=1.40 / aq=1:1.00
Default : Yes
Forced : No
Audio
ID : 2
Format : AC-3
Format/Info : Audio Coding 3
Mode extension : CM (complete main)
Format settings, Endianness : Big
Codec ID : A_AC3
Duration : 1h 25mn
Bit rate mode : Constant
Bit rate : 640 Kbps
Channel(s) : 6 channels
Channel positions : Front: L C R, Side: L R, LFE
Sampling rate : 48.0 KHz
Compression mode : Lossy
Delay relative to video : 198ms
Stream size : 390 MiB (7%)
Language : English
Default : Yes
Forced : No
Download
Для скачивания .torrent файлов необходима регистрация
Сайт не распространяет и не хранит электронные версии произведений, а лишь предоставляет доступ к создаваемому пользователями каталогу ссылок на торрент-файлы, которые содержат только списки хеш-сумм
[Профиль]  [ЛС] 

cheh55

Стаж: 9 лет 7 месяцев

Сообщений: 15

cheh55 · 05-Июл-15 12:36 (спустя 2 дня 2 часа)

1. INTRO
2. A TI A TI
3. RUMBA TECH
4. LA NEGRA
5. CUBA
6. SAMBA SAMBA
7. A TU VERA
8. YO SO QUEL
9. FAIRIES
10. UN AMOR
11. DJOBI DJOBA
12. TAMPA
13. CARAMELO
14. PENA PENITA
15. LA QUIERO
16. SABROSO
17. BAMBOLEO
18. VOLARE
[Профиль]  [ЛС] 

Pacode123

Стаж: 9 лет 7 месяцев

Сообщений: 103


Pacode123 · 13-Июл-15 18:32 (спустя 8 дней)

Вот спасибо огромное за концерт Наконец-то новый телевизионный концерт УРА!!!!!!!!!!!!!!!!!!!!!!!!!!!!!!!
Будет ещё что-то выкладывай!
[Профиль]  [ЛС] 

Handino

Победители спортивных конкурсов

Стаж: 8 лет 3 месяца

Сообщений: 3670

Handino · 13-Июл-15 20:49 (спустя 2 часа 17 мин.)

meloman67
огромное спасибо!
Давно не было новых видеоконцертов Gipsy Kings.
8. YO SO QUEL - здесь явно ошибка, правильно написано лишь первое слово "Yo", как посмотрю концерт, обязательно подскажу, как там на самом деле. Возможно, Yo soy aquel... что-то новое с репертуара.
9. FAIRIES - если с альбома Savor Flamenco, то называется Fairies melody
[Профиль]  [ЛС] 

Rumberos

Стаж: 11 лет 6 месяцев

Сообщений: 38


Rumberos · 14-Июл-15 12:58 (спустя 16 часов)

Мэрси !
Да, согласен с Handino давно не было новых видеоконцертов.
Сейчас смотреть буду))))
Судя по скринам - Тонино продолжает толстеть ))))
[Профиль]  [ЛС] 

Handino

Победители спортивных конкурсов

Стаж: 8 лет 3 месяца

Сообщений: 3670

Handino · 24-Июл-15 22:26 (спустя 10 дней)

cheh55 писал(а):
682055348. YO SO QUEL
Правильное название песни Sueño de noche (с альбома Compás)
cheh55 писал(а):
682055344. LA NEGRA
5. CUBA
Не факт, что эти названия правильные, их GK исполняют только на концертах, официально на CD не издавались.
Пользователи youtube, которые выкладывали фрагменты концертов условно их назвали так, как приведено выше.
[Профиль]  [ЛС] 
 
Ответить
Loading...
Error