Yanni - The Dream Concert - Live from the Great Pyramids of Egypt [2016, New Age, Pop Rock, Instrumental, Neo-Classical, BDRip 720p]

Страницы:  1

Ответить
Автор
Сообщение

anbelk27

Admin

Стаж: 10 лет 3 месяца

Сообщений: 7805

anbelk27 · 27-Июл-16 00:06 (2 года 11 месяцев назад)

Yanni - The Dream Concert - Live from the Great Pyramids of Egypt
Жанр: New Age, Pop Rock, Instrumental, Neo-Classical
Продолжительность: 01:02:09
Год выпуска: 2016 г.
Состав: Yanni - arranger, composer, orchestration, keyboards; Charles Adams - drums; Benedikt Brydern - violin; Jason Carder - trumpet and flugelhorn; Yoel Del Sol - percussion; Víctor Espínola - harp; Ming Freeman - keyboards; James Mattos - French horn; Sarah O’Brien - cello; Mary Simpson - violin; Dana Teboe - trombone; Gabriel Vivas - bass; Samvel Yervinyan - violin; Alexander Zhiroff - cello; Lauren Jelencovich, Lisa Lavie - vocals
Описание:
• The Dream Concert: Live from the Great Pyramids of Egypt is the seventh live album and concert video by contemporary instrumentalist Yanni, officially released on June 3, 2016. The two concerts were performed outdoors on October 30 and 31, 2015, on the grounds of the Egyptian pyramids and Great Sphinx of Giza, Yanni's first performance in Egypt.
Треклист:
1 One Man's Dream 02:47
2 For All Seasons 06:01
3 Yanni: Welcome 03:45
4 Felitsa 04:51
5 Acroyali 02:17
6 Human Condition 05:12
7 Dreams Come True Interlude 02:42
8 Reflections of Passion 04:33
9 Standing in Motion 01:49
10 Nostalgia 04:20
11 Niki Nana 06:41
12 Santorini 04:49
13 International Space Station Message 03:53
14 The Storm 04:18
Качество : BDRip 720p
Контейнер: MKV
Видео кодек: H.264
Аудио кодек: AC3
Видео: AVC, 1280x720 (16:9), 23.976 fps, 5 000 Kbps
Аудио#1: AC-3, 48.0 KHz, 6 ch, 448 Kbps
Аудио#2: AC-3, 48.0 KHz, 2 ch, 192 Kbps
Mediainfo/x264Log
x264Log
[Information] [26.07.2016 9:22:54] Standard error stream
-[Information] [26.07.2016 9:23:00] avs [info]: 1280x720p 1:1 @ 24000/1001 fps (cfr)
-[Information] [26.07.2016 9:23:00] x264 [info]: using SAR=1/1
-[Information] [26.07.2016 9:23:00] x264 [info]: using cpu capabilities: MMX2 SSE2Fast SSSE3 SSE4.2 AVX
-[Information] [26.07.2016 9:23:00] x264 [info]: profile High, level 4.1
-[Information] [26.07.2016 16:52:22] x264 [info]: frame I:568 Avg QP:16.66 size:116977
-[Information] [26.07.2016 16:52:22] x264 [info]: frame P:20642 Avg QP:19.92 size: 49281
-[Information] [26.07.2016 16:52:22] x264 [info]: frame B:68187 Avg QP:22.02 size: 18266
-[Information] [26.07.2016 16:52:22] x264 [info]: consecutive B-frames: 2.6% 2.8% 12.0% 22.1% 9.9% 44.7% 2.7% 1.4% 1.9%
-[Information] [26.07.2016 16:52:22] x264 [info]: mb I I16..4: 9.8% 71.0% 19.3%
-[Information] [26.07.2016 16:52:22] x264 [info]: mb P I16..4: 1.9% 14.8% 1.9% P16..4: 29.4% 32.3% 8.7% 1.3% 0.2% skip: 9.5%
-[Information] [26.07.2016 16:52:22] x264 [info]: mb B I16..4: 0.2% 1.8% 0.2% B16..8: 34.3% 19.4% 2.9% direct:10.3% skip:30.9% L0:37.9% L1:45.3% BI:16.9%
-[Information] [26.07.2016 16:52:22] x264 [info]: 8x8 transform intra:79.4% inter:69.1%
-[Information] [26.07.2016 16:52:22] x264 [info]: direct mvs spatial:96.8% temporal:3.2%
-[Information] [26.07.2016 16:52:22] x264 [info]: coded y,uvDC,uvAC intra: 84.8% 86.3% 65.9% inter: 30.7% 37.1% 11.4%
-[Information] [26.07.2016 16:52:22] x264 [info]: i16 v,h,dc,p: 23% 15% 9% 54%
-[Information] [26.07.2016 16:52:22] x264 [info]: i8 v,h,dc,ddl,ddr,vr,hd,vl,hu: 7% 7% 7% 10% 15% 14% 14% 13% 14%
-[Information] [26.07.2016 16:52:22] x264 [info]: i4 v,h,dc,ddl,ddr,vr,hd,vl,hu: 10% 10% 6% 8% 14% 13% 13% 11% 15%
-[Information] [26.07.2016 16:52:22] x264 [info]: i8c dc,h,v,p: 39% 23% 18% 19%
-[Information] [26.07.2016 16:52:22] x264 [info]: Weighted P-Frames: Y:13.8% UV:10.5%
-[Information] [26.07.2016 16:52:22] x264 [info]: ref P L0: 48.3% 10.3% 18.0% 6.8% 5.2% 3.6% 3.2% 1.9% 2.0% 0.5% 0.0%
-[Information] [26.07.2016 16:52:22] x264 [info]: ref B L0: 81.6% 10.3% 3.7% 1.7% 1.1% 0.9% 0.5% 0.2%
-[Information] [26.07.2016 16:52:22] x264 [info]: ref B L1: 95.0% 5.0%
-[Information] [26.07.2016 16:52:22] x264 [info]: kb/s:4997.46
-[Information] [26.07.2016 16:52:22] encoded 89397 frames, 3.32 fps, 4997.46 kb/s
General
Unique ID : 225037046303982381484548831224215150834 (0xA94C8F00E3D432E697187773AC2CA0F2)
Complete name : N:\Yanni-The Dream Concert.BDRip720p.mkv
Format : Matroska
Format version : Version 4 / Version 2
File size : 2.45 GiB
Duration : 1h 2mn
Overall bit rate : 5 640 Kbps
Encoded date : UTC 2016-07-26 20:22:55
Writing application : mkvmerge v8.6.0 ('A Place In Your World') 64bit
Writing library : libebml v1.3.3 + libmatroska v1.4.4
Video
ID : 1
Format : AVC
Format/Info : Advanced Video Codec
Format profile : [email protected]
Format settings, CABAC : Yes
Format settings, ReFrames : 9 frames
Codec ID : V_MPEG4/ISO/AVC
Duration : 1h 2mn
Bit rate : 5 000 Kbps
Width : 1 280 pixels
Height : 720 pixels
Display aspect ratio : 16:9
Frame rate mode : Constant
Frame rate : 23.976 (24000/1001) fps
Color space : YUV
Chroma subsampling : 4:2:0
Bit depth : 8 bits
Scan type : Progressive
Bits/(Pixel*Frame) : 0.226
Stream size : 2.17 GiB (89%)
Writing library : x264 core 146 r2538 121396c
Encoding settings : cabac=1 / ref=9 / deblock=1:-1:-1 / analyse=0x3:0x133 / me=umh / subme=11 / psy=1 / psy_rd=1.00:0.15 / mixed_ref=1 / me_range=32 / chroma_me=1 / trellis=2 / 8x8dct=1 / cqm=0 / deadzone=21,11 / fast_pskip=1 / chroma_qp_offset=-3 / threads=6 / lookahead_threads=1 / sliced_threads=0 / nr=0 / decimate=1 / interlaced=0 / bluray_compat=0 / constrained_intra=0 / bframes=8 / b_pyramid=2 / b_adapt=2 / b_bias=0 / direct=3 / weightb=1 / open_gop=0 / weightp=2 / keyint=240 / keyint_min=23 / scenecut=40 / intra_refresh=0 / rc_lookahead=100 / rc=2pass / mbtree=1 / bitrate=5000 / ratetol=1.0 / qcomp=0.60 / qpmin=0 / qpmax=69 / qpstep=4 / cplxblur=20.0 / qblur=0.5 / vbv_maxrate=50000 / vbv_bufsize=62500 / nal_hrd=none / filler=0 / ip_ratio=1.40 / aq=1:1.00
Default : Yes
Forced : No
Audio #1
ID : 2
Format : AC-3
Format/Info : Audio Coding 3
Mode extension : CM (complete main)
Format settings, Endianness : Big
Codec ID : A_AC3
Duration : 1h 2mn
Bit rate mode : Constant
Bit rate : 448 Kbps
Channel(s) : 6 channels
Channel positions : Front: L C R, Side: L R, LFE
Sampling rate : 48.0 KHz
Frame rate : 31.250 fps (1536 spf)
Compression mode : Lossy
Stream size : 199 MiB (8%)
Default : Yes
Forced : No
Audio #2
ID : 3
Format : AC-3
Format/Info : Audio Coding 3
Mode extension : CM (complete main)
Format settings, Endianness : Big
Codec ID : A_AC3
Duration : 1h 2mn
Bit rate mode : Constant
Bit rate : 192 Kbps
Channel(s) : 2 channels
Channel positions : Front: L R
Sampling rate : 48.0 KHz
Frame rate : 31.250 fps (1536 spf)
Compression mode : Lossy
Stream size : 85.3 MiB (3%)
Default : No
Forced : No
Menu
00:00:00.000 : en:Intro
00:01:38.348 : en:01. One Man's Dream
00:04:24.514 : en:02. For All Seasons
00:10:23.540 : en:03. Yanni: Welcome
00:14:10.933 : en:04. Felitsa
00:19:04.894 : en:05. Acroyali
00:21:21.989 : en:06. Human Condition
00:26:32.591 : en:07. Dreams Come True Interlude
00:29:15.963 : en:08. Reflections of Passion
00:33:48.068 : en:09. Standing in Motion
00:35:37.802 : en:10. Nostalgia
00:40:02.442 : en:11. Niki Nana
00:46:33.291 : en:12. Santorini
00:51:32.673 : en:13. International Space Station Message
00:55:22.486 : en:14. The Storm
00:59:38.575 : en:Credits
Download
Для скачивания .torrent файлов необходима регистрация
Сайт не распространяет и не хранит электронные версии произведений, а лишь предоставляет доступ к создаваемому пользователями каталогу ссылок на торрент-файлы, которые содержат только списки хеш-сумм
[Профиль]  [ЛС] 

(Y)игрек

Хранитель

Стаж: 10 лет 1 месяц

Сообщений: 1384

(Y)игрек · 28-Июл-16 14:07 (спустя 1 день 14 часов, ред. 28-Июл-16 14:07)

Цитата:
Аудио#2: AC-3, 48.0 KHz, 2 ch, 192 Kbps
Это для прикола, или шоб було?
betoxfx писал(а):
71122390Пожалуйста запустите Blu-ray.
Большое спасибо.
Это не спасёт отца русской демократии, там всё так же уныло
BD
Technical Specs
Blu-ray
BD-25 Single-Layer Disc
Video Resolution/Codec
1080p/AVC MPEG-4
Aspect Ratio(s)
1.78:1
Audio Formats
English Dolby Digital 5.1 (448 kbps)
English Dolby Digital 2.0 (192 kbps)
Subtitles/Captions
None
Supplements
None
[Профиль]  [ЛС] 

bimer777

Стаж: 10 лет 4 месяца

Сообщений: 20

bimer777 · 17-Окт-16 09:49 (спустя 2 месяца 19 дней)

Yanni - молодец, как всегда. Жаль только что концерты все меньше, ничего нового нет. А ведь когда-то здесь же зажигал намного ярче.
[Профиль]  [ЛС] 

ilunga

Стаж: 11 лет 8 месяцев

Сообщений: 464

ilunga · 14-Фев-17 11:57 (спустя 3 месяца 28 дней, ред. 14-Фев-17 11:57)

bimer777 писал(а):
71628459Жаль только что концерты все меньше, ничего нового нет. А ведь когда-то здесь же зажигал намного ярче.
во-первых, Yanni сам уже давно не сочиняет: теперь он всего лишь фронтмен и продюсер. Большинство композиций с последних альбомов - не его авторства.
А во-вторых, (я уже писал об этом) тот человек, которого мы видим сегодня, мало похож на того Yanni, каким он был в 90-х.
[Профиль]  [ЛС] 

(Y)игрек

Хранитель

Стаж: 10 лет 1 месяц

Сообщений: 1384

(Y)игрек · 15-Фев-17 00:11 (спустя 12 часов)

Цитата:
тот человек, которого мы видим сегодня, мало похож на того Yanni, каким он был в 90-х.
К сожалению это так.
Перформенс очень слабый как для него.
[Профиль]  [ЛС] 
 
Ответить
Loading...
Error