Путь дракона / Meng long guo jiang (Брюс Ли / Bruce Lee) [1972, боевик, комедия, криминал, BDRip 720p] 4xMVO + 3xAVO + Ukr + Original + Sub

Страницы:  1

Ответить
Автор
Сообщение

Skazhutin

Стаж: 11 лет 9 месяцев

Сообщений: 6814

Skazhutin · 04-Апр-12 13:01 (7 лет назад, ред. 04-Апр-12 13:08)

Путь дракона / Meng long guo jiangСлоган: «MAN, CAN WE USE HIM NOW! Bruce Lee is back in the fantastic all new adventures of the Super Hero from Enter the Dragon... ..his last performance is his best!»
Год выпуска: 1972
Страна: Гонконг
Жанр: боевик, комедия, криминал
Продолжительность: 01:38:40
Перевод:
Многоголосый, Superbit
Многоголосый, Twister
Многоголосый, СТС
Многоголосый, Ren-TV
Многоголосый, Украинский
Авторский (Горчаков Василий)
Авторский (Живов Юрий)
Авторский (Королёв Владимир)

Субтитры: русские, английские
Навигация по главам: есть
Режиссер: Брюс Ли / Bruce Lee
Сценарий: Брюс Ли / Bruce Lee
Продюсер: Рэймонд Чоу / Raymond Chow, Брюс Ли / Bruce Lee
Оператор: Тадаси Нисимото / Tadashi Nishimoto
Композитор: Джозеф Ку / Joseph Koo
В ролях: Брюс Ли, Нора Миао, Чак Норрис, Вэй Пинао, Чун Синь Хуан, Роберт Уолл, Ван Вэнг, Тони Лю, Юникорн Чан, Мализа Лонго
Описание: Тан приезжает из Гонконга в Рим, чтобы помочь друзьям семьи, чей ресторан задумали отобрать местные мафиози. Привыкшие всегда получать то, что захотят и не останавливаться ни перед чем, бандиты совершили большую ошибку, недооценив с виду скромного молодого человека.
Не сумев справиться с ним своими силами, мафиози нанимают лучших европейских и японских мастеров боевых искусств, но Тан с легкостью побеждает всех. И тогда против него на арену древнего Колизея выходит «крутой и смертоносный» американец Колт.
Рейтинг
kinopoisk.ru: 7.811 (3 008)
imdb.com: 7.10 (10 455)
MPAA: R - Лицам до 17 лет обязательно присутствие взрослого
Качество: BDRip (tRuAVC)
Исходник: HDClub by Devlad
Формат: Matroska
Видеокодек: AVC
Аудиокодек: AC3, DTS
Видео: 1280x546 (2.344); 5398 Kbps; 23,976 fps
Аудио: Russian; DTS; 754 Kbps; CBR; 6 ch; Многоголосый, Superbit
Аудио: Russian; AC3; 384 Kbps; CBR; 6 ch; Многоголосый, Twister
Аудио: Russian; AC3; 192 Kbps; CBR; 2 ch; Многоголосый, СТС
Аудио: Russian; AC3; 192 Kbps; CBR; 2 ch; Многоголосый, Ren-TV
Аудио: Russian; AC3; 192 Kbps; CBR; 2 ch; Авторский, Горчаков Василий
Аудио: Russian; AC3; 192 Kbps; CBR; 2 ch; Авторский, Живов Юрий
Аудио: Ukrainian; AC3; 192 Kbps; CBR; 2 ch; Многоголосый
Аудио: Russian; AC3; 640 Kbps; CBR; 6 ch; Авторский, Королёв Владимир
Аудио: Chinese; AC3; 640 Kbps; CBR; 6 ch
Субтитры: Russian, English
Знаете ли Вы, что...
  1. Фильм снимался в римском Колизее.
  2. Фильм снимался без звука. Весь саундтрек был создан при монтаже.
  3. В фильме используется не только оригинальная музыка, но и музыка Эннио Морриконе, написанная для вестерна Серджио Леоне.
  4. В американском прокате фильм был назван «Возвращение дракона» для того, чтобы развить успех другого фильма с Брюсом Ли «Выход дракона» (1973), который вышел в прокат чуть раньше.
..............................Skazhutin.............................................................Source




MI
General
Unique ID : 192187360345764280153979423039347599301 (0x9095F070DECEC2058D06A2D456E9A7C5)
Complete name : Meng.long.guo.jiang.1972.720p.BluRay.7xRus.Ukr.Eng.HDCLUB-Skazhutin.mkv
Format : Matroska
Format version : Version 2
File size : 6.05 GiB
Duration : 1h 38mn
Overall bit rate : 8 780 Kbps
Movie name : Meng long guo jiang (1972) - Release for HDCLUB by Skazhutin
Encoded date : UTC 2012-03-29 08:56:17
Writing application : mkvmerge v5.4.0 ('Piper') built on Mar 10 2012 13:34:39
Writing library : libebml v1.2.3 + libmatroska v1.3.0
Attachment : Yes / Yes
Video
ID : 1
Format : AVC
Format/Info : Advanced Video Codec
Format profile : [email protected]
Format settings, CABAC : Yes
Format settings, ReFrames : 10 frames
Codec ID : V_MPEG4/ISO/AVC
Duration : 1h 38mn
Bit rate : 5 226 Kbps
Width : 1 280 pixels
Height : 546 pixels
Display aspect ratio : 2.35:1
Frame rate : 23.976 fps
Color space : YUV
Chroma subsampling : 4:2:0
Bit depth : 8 bits
Scan type : Progressive
Bits/(Pixel*Frame) : 0.312
Stream size : 3.60 GiB (60%)
Title : Release for HDCLUB
Writing library : x264 core 122 r2184kMod 5c85e0a
Encoding settings : cabac=1 / ref=10 / deblock=1:-3:-3 / analyse=0x3:0x113 / me=umh / subme=11 / psy=1 / fade_compensate=0.00 / psy_rd=1.00:0.00 / mixed_ref=1 / me_range=48 / chroma_me=1 / trellis=2 / 8x8dct=1 / cqm=0 / deadzone=21,11 / fast_pskip=1 / chroma_qp_offset=-2 / threads=12 / sliced_threads=0 / nr=0 / decimate=1 / interlaced=0 / bluray_compat=0 / constrained_intra=0 / bframes=8 / b_pyramid=2 / b_adapt=2 / b_bias=0 / direct=1 / weightb=1 / open_gop=0 / weightp=2 / keyint=250 / keyint_min=23 / scenecut=40 / intra_refresh=0 / rc_lookahead=40 / rc=crf / mbtree=0 / crf=18.0000 / qcomp=0.70 / qpmin=0 / qpmax=69 / qpstep=4 / vbv_maxrate=50000 / vbv_bufsize=62500 / crf_max=0.0 / nal_hrd=none / ip_ratio=1.40 / pb_ratio=1.30 / aq=3:0.80
Language : Chinese
Default : Yes
Forced : No
Matrix coefficients : BT.709-5, BT.1361, IEC 61966-2-4 709, SMPTE RP177
Audio #1
ID : 2
Format : DTS
Format/Info : Digital Theater Systems
Codec ID : A_DTS
Duration : 1h 38mn
Bit rate mode : Constant
Bit rate : 755 Kbps
Channel(s) : 6 channels
Channel positions : Front: L C R, Side: L R, LFE
Sampling rate : 48.0 KHz
Bit depth : 24 bits
Compression mode : Lossy
Stream size : 533 MiB (9%)
Title : DTS 5.1 @ 768 kbps - Многоголосый, Superbit
Language : Russian
Default : Yes
Forced : No
Audio #2
ID : 3
Format : AC-3
Format/Info : Audio Coding 3
Mode extension : CM (complete main)
Codec ID : A_AC3
Duration : 1h 38mn
Bit rate mode : Constant
Bit rate : 384 Kbps
Channel(s) : 6 channels
Channel positions : Front: L C R, Side: L R, LFE
Sampling rate : 48.0 KHz
Bit depth : 16 bits
Compression mode : Lossy
Stream size : 271 MiB (4%)
Title : AC3 5.1 @ 384 kbps - Многоголосый, Twister
Language : Russian
Default : No
Forced : No
Audio #3
ID : 4
Format : AC-3
Format/Info : Audio Coding 3
Mode extension : CM (complete main)
Codec ID : A_AC3
Duration : 1h 38mn
Bit rate mode : Constant
Bit rate : 192 Kbps
Channel(s) : 2 channels
Channel positions : Front: L R
Sampling rate : 48.0 KHz
Bit depth : 16 bits
Compression mode : Lossy
Stream size : 136 MiB (2%)
Title : AC3 2.0 @ 192 kbps - Многоголосый, СТС
Language : Russian
Default : No
Forced : No
Audio #4
ID : 5
Format : AC-3
Format/Info : Audio Coding 3
Mode extension : CM (complete main)
Codec ID : A_AC3
Duration : 1h 38mn
Bit rate mode : Constant
Bit rate : 192 Kbps
Channel(s) : 2 channels
Channel positions : Front: L R
Sampling rate : 48.0 KHz
Bit depth : 16 bits
Compression mode : Lossy
Stream size : 136 MiB (2%)
Title : AC3 2.0 @ 192 kbps - Многоголосый, Ren-TV
Language : Russian
Default : No
Forced : No
Audio #5
ID : 6
Format : AC-3
Format/Info : Audio Coding 3
Mode extension : CM (complete main)
Codec ID : A_AC3
Duration : 1h 38mn
Bit rate mode : Constant
Bit rate : 192 Kbps
Channel(s) : 2 channels
Channel positions : Front: L R
Sampling rate : 48.0 KHz
Bit depth : 16 bits
Compression mode : Lossy
Stream size : 136 MiB (2%)
Title : AC3 2.0 @ 192 kbps - Одноголосый, В. Горчаков
Language : Russian
Default : No
Forced : No
Audio #6
ID : 7
Format : AC-3
Format/Info : Audio Coding 3
Mode extension : CM (complete main)
Codec ID : A_AC3
Duration : 1h 38mn
Bit rate mode : Constant
Bit rate : 192 Kbps
Channel(s) : 2 channels
Channel positions : Front: L R
Sampling rate : 48.0 KHz
Bit depth : 16 bits
Compression mode : Lossy
Stream size : 136 MiB (2%)
Title : AC3 2.0 @ 192 kbps - Одноголосый, Ю. Живов
Language : Russian
Default : No
Forced : No
Audio #7
ID : 8
Format : AC-3
Format/Info : Audio Coding 3
Mode extension : CM (complete main)
Codec ID : A_AC3
Duration : 1h 38mn
Bit rate mode : Constant
Bit rate : 192 Kbps
Channel(s) : 2 channels
Channel positions : Front: L R
Sampling rate : 48.0 KHz
Bit depth : 16 bits
Compression mode : Lossy
Stream size : 136 MiB (2%)
Title : AC3 2.0 @ 192 kbps - Многоголосый
Language : Ukrainian
Default : No
Forced : No
Audio #8
ID : 9
Format : AC-3
Format/Info : Audio Coding 3
Mode extension : CM (complete main)
Codec ID : A_AC3
Duration : 1h 38mn
Bit rate mode : Constant
Bit rate : 640 Kbps
Channel(s) : 6 channels
Channel positions : Front: L C R, Side: L R, LFE
Sampling rate : 48.0 KHz
Bit depth : 16 bits
Compression mode : Lossy
Stream size : 452 MiB (7%)
Title : AC3 5.1 @ 640 kbps - Одноголосый, В. Королёв
Language : Russian
Default : No
Forced : No
Audio #9
ID : 10
Format : AC-3
Format/Info : Audio Coding 3
Mode extension : CM (complete main)
Codec ID : A_AC3
Duration : 1h 38mn
Bit rate mode : Constant
Bit rate : 640 Kbps
Channel(s) : 6 channels
Channel positions : Front: L C R, Side: L R, LFE
Sampling rate : 48.0 KHz
Bit depth : 16 bits
Compression mode : Lossy
Stream size : 452 MiB (7%)
Title : AC3 5.1 @ 640 kbps
Language : Chinese
Default : No
Forced : No
Text #1
ID : 11
Format : UTF-8
Codec ID : S_TEXT/UTF8
Codec ID/Info : UTF-8 Plain Text
Language : Russian
Default : No
Forced : No
Text #2
ID : 12
Format : UTF-8
Codec ID : S_TEXT/UTF8
Codec ID/Info : UTF-8 Plain Text
Language : English
Default : No
Forced : No
Menu
00:00:00.000 : en:Chapter 1
00:02:10.921 : en:Chapter 2
00:12:11.605 : en:Chapter 3
00:17:37.056 : en:Chapter 4
00:20:49.455 : en:Chapter 5
00:28:57.359 : en:Chapter 6
00:35:07.313 : en:Chapter 7
00:40:19.250 : en:Chapter 8
00:42:13.322 : en:Chapter 9
00:43:59.302 : en:Chapter 10
00:45:22.385 : en:Chapter 11
00:47:07.199 : en:Chapter 12
00:55:39.918 : en:Chapter 13
01:02:06.304 : en:Chapter 14
01:08:17.426 : en:Chapter 15
01:11:37.667 : en:Chapter 16
01:14:07.317 : en:Chapter 17
01:21:06.485 : en:Chapter 18
01:34:34.917 : en:Chapter 19
01:36:15.728 : en:Chapter 20

x264 log
Код:
y4m [info]: 1280x546p 1:1 @ 24000/1001 fps (cfr)
x264 [info]: using SAR=1/1
x264 [info]: using cpu capabilities: MMX2 SSE2Fast SSSE3 FastShuffle SSE4.2 AVX
x264 [info]: profile High, level 4.1
x264 [info]: frame I:1014  Avg QP:16.95  size: 92541
x264 [info]: frame P:27064 Avg QP:18.36  size: 49434
x264 [info]: frame B:113882 Avg QP:20.58  size: 22515
x264 [info]: consecutive B-frames:  1.1%  0.7%  2.7% 14.5% 19.2% 49.9%  8.3%  2.4%  1.2%
x264 [info]: mb I  I16..4:  1.0% 88.1% 10.9%
x264 [info]: mb P  I16..4:  0.1% 15.7%  1.1%  P16..4: 28.1% 38.4% 16.1%  0.0%  0.0%    skip: 0.6%
x264 [info]: mb B  I16..4:  0.0%  2.1%  0.1%  B16..8: 37.5% 26.8%  6.1%  direct: 9.7%  skip:17.6%  L0:43.5% L1:42.0% BI:14.5%
x264 [info]: 8x8 transform intra:92.1% inter:60.5%
x264 [info]: coded y,uvDC,uvAC intra: 95.0% 89.1% 61.9% inter: 50.2% 32.7% 2.7%
x264 [info]: i16 v,h,dc,p: 27% 39%  3% 31%
x264 [info]: i8 v,h,dc,ddl,ddr,vr,hd,vl,hu: 12%  8%  7%  9% 13% 12% 14% 11% 14%
x264 [info]: i4 v,h,dc,ddl,ddr,vr,hd,vl,hu: 31%  8%  4%  6% 11% 11% 11%  8% 10%
x264 [info]: i8c dc,h,v,p: 36% 29% 20% 16%
x264 [info]: Weighted P-Frames: Y:20.2% UV:8.3%
x264 [info]: ref P L0: 34.2% 10.8% 17.7%  8.7%  7.6%  5.7%  5.3%  3.2%  3.2%  2.9%  0.7%  0.0%
x264 [info]: ref B L0: 71.3% 11.7%  5.7%  3.5%  2.5%  2.3%  1.8%  0.9%  0.4%
x264 [info]: ref B L1: 94.3%  5.7%
x264 [info]: kb/s:5398.88
encoded 141960 frames, 6.91 fps, 5398.88 kb/s
x264 [info]: ended at Thu Mar 29 03:29:10 2012
x264 [info]: encoding duration 5:42:25




релиз оформлен c помощью программы Flash Release
Download
Для скачивания .torrent файлов необходима регистрация
Сайт не распространяет и не хранит электронные версии произведений, а лишь предоставляет доступ к создаваемому пользователями каталогу ссылок на торрент-файлы, которые содержат только списки хеш-сумм
[Профиль]  [ЛС] 

Skazhutin

Стаж: 11 лет 9 месяцев

Сообщений: 6814

Skazhutin · 04-Апр-12 13:02 (спустя 44 сек.)

[Цитировать] 

Предыдущий не против замены.
[Профиль]  [ЛС] 

xxllxx

Стаж: 10 лет 5 месяцев

Сообщений: 197

xxllxx · 04-Апр-12 16:15 (спустя 3 часа, ред. 04-Апр-12 16:15)

[Цитировать] 

Не туда закинули сабж.
[Профиль]  [ЛС] 

Exner

Top Loader 02* 300GB

Стаж: 9 лет 4 месяца

Сообщений: 2308

Exner · 04-Апр-12 20:16 (спустя 4 часа)

[Цитировать] 

Skazhutin
Исходник другой? Помню, какой-то ремукс тут был, так полное гуано.
[Профиль]  [ЛС] 

Skazhutin

Стаж: 11 лет 9 месяцев

Сообщений: 6814

Skazhutin · 04-Апр-12 20:18 (спустя 2 мин.)

[Цитировать] 

Тот же вроде. Дорог прибавилось.
[Профиль]  [ЛС] 

Exner

Top Loader 02* 300GB

Стаж: 9 лет 4 месяца

Сообщений: 2308

Exner · 04-Апр-12 20:37 (спустя 18 мин.)

[Цитировать] 

Да я вижу, что потёрли модеры ту раздачу. Алиасинг был жестокий. Я там ещё изрядно наплевал в теме
[Профиль]  [ЛС] 

ultras00

Стаж: 9 лет 7 месяцев

Сообщений: 4

ultras00 · 05-Апр-12 02:45 (спустя 6 часов, ред. 05-Апр-12 02:45)

[Цитировать] 

раздача будет? На 66 % стоит
[Профиль]  [ЛС] 

ЯХСНИМ

Стаж: 10 лет 10 месяцев

Сообщений: 307

ЯХСНИМ · 29-Июн-12 06:56 (спустя 2 месяца 24 дня)

[Цитировать] 

.... помню, помню .... первые (самые первые - до них кино смотрели только в кино)
видеомагнитофоны..... Брюс Ли, потом Джеки Чан..... спасибо!
[Профиль]  [ЛС] 

afx

Стаж: 9 лет 4 месяца

Сообщений: 104


afx · 29-Мар-14 01:36 (спустя 1 год 8 месяцев)

[Цитировать] 

Господа, подскажите, а есть тут перевод, который был в видеосалонах тех времен?
[Профиль]  [ЛС] 

$la$h

Стаж: 10 лет

Сообщений: 1655

$la$h · 12-Фев-15 13:22 (спустя 10 месяцев)

[Цитировать] 

самый смешной и лучший фильм с Брюсом! И волосатым молодым Норрисом. 9 из 10!
Спасибо!
[Профиль]  [ЛС] 

Poopkeen

Стаж: 9 лет 7 месяцев

Сообщений: 111

Poopkeen · 24-Май-15 17:04 (спустя 3 месяца 12 дней)

[Цитировать] 

Италия колоритно показана. Даже проститутка симпатичная, не то что сейчас стоят на остановке недалеко от моего дома. А саундтрек чего стоит! Вообще весь фильм такой по-детски наивный и ностальгичный.
А Чак - человек-ковер, это точно!
[Профиль]  [ЛС] 

nazim5

Стаж: 7 лет

Сообщений: 3819

nazim5 · 03-Мар-17 23:55 (спустя 1 год 9 месяцев)

[Цитировать] 

Кто готов сделать Blu-ray релиз с оригинального HK 4K Ultra-HD Remastered Collection диска... Обращайтесь!
Сравнение
[Профиль]  [ЛС] 
 
Ответить
Loading...
Error