Концептуальные автомобили / Mystery Cars [12 серий из 12] [2011, Документальный, SATRip]

Страницы:  1
Ответить
Автор
Сообщение

crazynike94

Top Seed 03* 160r

Стаж: 9 лет 4 месяца

Сообщений: 636

crazynike94 · 10-Авг-12 11:35 (7 лет назад, ред. 02-Ноя-12 18:44)

DVB (17.6 Gb) / SATRip (4.3 Gb)
Концептуальные автомобили / Mystery Cars
Год выпуска: 2011
Страна: США
Жанр: Документальный
Продолжительность: ~ 00:23:50 x12
Перевод: Профессиональный (двухголосый)
Русские субтитры: нет
Описание: Они обладают необычным дизайном, пропитанным духом времени, и своей историей - концептуальные автомобили.
Все серии идеально умещаются на диск DVD5.
Список серий:
Alfa Romeo BAT 5 (1953) and Dodge Firearrow II (1954)
Alfa Romeo BAT 7 (1954) and Dodge Firearrow IV (1954)
Alfa Romeo BAT 9 (1955) and Dodge Firebomb (1955)
Buick Centurion (1956) and Plymouth Explorer (1954)
Buick Wildcat II (1954) and Buick Y-Job (1938)
Cadillac Cyclone (1959) and Buick Phantom (1977)
Ford Mustang (1962) and GM Firebird III (1959)
Ford X-100 (1953) and Chrysler Turbine (1963)
GM Firebird II (1956) and Cadillac Series 62 Coupe (1953)
GM Futurliner (1953) and Ford Thunderbird Italien (1963)
GM Le Sabre (1951) and Buick XP-300 (1951)
GM XP-21 Firebird I (1954) and Mercury D528 (1955)

Качество: SATRip
Формат: AVI
Видео кодек: DivX
Аудио кодек: MP3
Видео: DivX 5, 720x400 (16:9), 2000 Kbps, 25 fps
Аудио: MP3, 128 Kbps, 48 KHz, Stereo (в Ford Mustang (1962) and GM Firebird III (1959): MP3, 48 Kbps, 48 KHz, Mono)
История обновлений
17.08.12: Все серии полностью обновлены. Убран эффект интерлейсинга, более качественный звук. Добавлена 3-я серия.
25.08.12: Добавлена 4-я серия GM Futurliner (1953) and Ford Thunderbird Italien (1963).
01.09.12: Добавлена 5-я серия Alfa Romeo BAT 5 (1953) and Dodge Firearrow II (1954).
07.09.12: Добавлена 6-я серия Alfa Romeo BAT 7 (1954) and Dodge Firearrow IV (1954).
14.09.12: Добавлена 7-я серия Alfa Romeo BAT 9 (1955) and Dodge Firebomb (1955).
21.09.12: Добавлена 8-я серия Buick Centurion (1956) and Plymouth Explorer (1954).
29.09.12: Добавлена 9-я серия GM XP-21 Firebird I (1954) and Mercury D528 (1955).
05.10.12: Добавлена 10-я серия Ford X-100 (1953) and Chrysler Turbine (1963).
13.10.12: Добавлена 11-я серия Cadillac Cyclone (1959) and Buick Phantom (1977).
20.10.12: Добавлена последняя, 12-я серия GM Firebird II (1956) and Cadillac Series 62 Coupe (1953).
MediaInfo
Alfa Romeo BAT 5 (1953) and Dodge Firearrow II (1954)
Код:
Общее
Формат                                   : AVI
Формат/Информация                        : Audio Video Interleave
Размер файла                             : 365 Мбайт
Продолжительность                        : 23 м.
Общий поток                              : 2139 Кбит/сек
Программа кодирования                    : VirtualDubMod 1.5.10.2 (build 2540/release)
Библиотека кодирования                   : VirtualDubMod build 2540/release
Видео
Идентификатор                            : 0
Формат                                   : MPEG-4 Visual
Параметр BVOP формата                    : 1
Параметр QPel формата                    : Нет
Параметр GMC формата                     : Без точки перехода
Параметр матрицы формата                 : Default (H.263)
Режим смешивания                         : Сжатый битовый поток
Идентификатор кодека                     : DX50
Идентификатор кодека/Подсказка           : DivX 5
Продолжительность                        : 23 м.
Битрейт                                  : 2001 Кбит/сек
Ширина                                   : 720 пикселей
Высота                                   : 400 пикселей
Соотношение сторон                       : 16:9
Частота кадров                           : 25,000 кадров/сек
Цветовое пространство                    : YUV
Субдискретизация насыщенности            : 4:2:0
Битовая глубина                          : 8 бит
Тип развёртки                            : Прогрессивная
Метод сжатия                             : С потерями
Бит/(Пиксели*Кадры)                      : 0.278
Размер потока                            : 342 Мбайт (94%)
Библиотека кодирования                   : DivX 3330
Аудио
Идентификатор                            : 1
Формат                                   : MPEG Audio
Версия формата                           : Version 1
Профиль формата                          : Layer 3
Идентификатор кодека                     : 55
Идентификатор кодека/Подсказка           : MP3
Продолжительность                        : 23 м.
Вид битрейта                             : Постоянный
Битрейт                                  : 128 Кбит/сек
Каналы                                   : 2 канала
Частота                                  : 48,0 КГц
Метод сжатия                             : С потерями
Размер потока                            : 21,8 Мбайт (6%)
Выравнивание                             : Соединение по промежуткам
Продолжительность промежутка             : 40  мс. (1,00 видеокадр)
Время предзагрузки промежутка            : 504  мс.
Библиотека кодирования                   : LAME3.99
Настройки программы                      : -m s -V 4 -q 0 -lowpass 17 -b 128
Alfa Romeo BAT 7 (1954) and Dodge Firearrow IV (1954)
Код:
Общее
Формат                                   : AVI
Формат/Информация                        : Audio Video Interleave
Размер файла                             : 366 Мбайт
Продолжительность                        : 23 м.
Общий поток                              : 2136 Кбит/сек
Программа кодирования                    : VirtualDubMod 1.5.10.2 (build 2540/release)
Библиотека кодирования                   : VirtualDubMod build 2540/release
Видео
Идентификатор                            : 0
Формат                                   : MPEG-4 Visual
Параметр BVOP формата                    : 1
Параметр QPel формата                    : Нет
Параметр GMC формата                     : Без точки перехода
Параметр матрицы формата                 : Default (H.263)
Режим смешивания                         : Сжатый битовый поток
Идентификатор кодека                     : DX50
Идентификатор кодека/Подсказка           : DivX 5
Продолжительность                        : 23 м.
Битрейт                                  : 1998 Кбит/сек
Ширина                                   : 720 пикселей
Высота                                   : 400 пикселей
Соотношение сторон                       : 16:9
Частота кадров                           : 25,000 кадров/сек
Цветовое пространство                    : YUV
Субдискретизация насыщенности            : 4:2:0
Битовая глубина                          : 8 бит
Тип развёртки                            : Прогрессивная
Метод сжатия                             : С потерями
Бит/(Пиксели*Кадры)                      : 0.278
Размер потока                            : 342 Мбайт (94%)
Библиотека кодирования                   : DivX 3330
Аудио
Идентификатор                            : 1
Формат                                   : MPEG Audio
Версия формата                           : Version 1
Профиль формата                          : Layer 3
Идентификатор кодека                     : 55
Идентификатор кодека/Подсказка           : MP3
Продолжительность                        : 23 м.
Вид битрейта                             : Постоянный
Битрейт                                  : 128 Кбит/сек
Каналы                                   : 2 канала
Частота                                  : 48,0 КГц
Метод сжатия                             : С потерями
Размер потока                            : 21,9 Мбайт (6%)
Выравнивание                             : Соединение по промежуткам
Продолжительность промежутка             : 40  мс. (1,00 видеокадр)
Время предзагрузки промежутка            : 504  мс.
Библиотека кодирования                   : LAME3.99
Настройки программы                      : -m s -V 4 -q 0 -lowpass 17 -b 128
Alfa Romeo BAT 9 (1955) and Dodge Firebomb (1955)
Код:
Общее
Формат                                   : AVI
Формат/Информация                        : Audio Video Interleave
Размер файла                             : 366 Мбайт
Продолжительность                        : 23 м.
Общий поток                              : 2140 Кбит/сек
Программа кодирования                    : VirtualDubMod 1.5.10.2 (build 2540/release)
Библиотека кодирования                   : VirtualDubMod build 2540/release
Видео
Идентификатор                            : 0
Формат                                   : MPEG-4 Visual
Параметр BVOP формата                    : 1
Параметр QPel формата                    : Нет
Параметр GMC формата                     : Без точки перехода
Параметр матрицы формата                 : Default (H.263)
Режим смешивания                         : Сжатый битовый поток
Идентификатор кодека                     : DX50
Идентификатор кодека/Подсказка           : DivX 5
Продолжительность                        : 23 м.
Битрейт                                  : 2002 Кбит/сек
Ширина                                   : 720 пикселей
Высота                                   : 400 пикселей
Соотношение сторон                       : 16:9
Частота кадров                           : 25,000 кадров/сек
Цветовое пространство                    : YUV
Субдискретизация насыщенности            : 4:2:0
Битовая глубина                          : 8 бит
Тип развёртки                            : Прогрессивная
Метод сжатия                             : С потерями
Бит/(Пиксели*Кадры)                      : 0.278
Размер потока                            : 343 Мбайт (94%)
Библиотека кодирования                   : DivX 3330
Аудио
Идентификатор                            : 1
Формат                                   : MPEG Audio
Версия формата                           : Version 1
Профиль формата                          : Layer 3
Идентификатор кодека                     : 55
Идентификатор кодека/Подсказка           : MP3
Продолжительность                        : 23 м.
Вид битрейта                             : Постоянный
Битрейт                                  : 128 Кбит/сек
Каналы                                   : 2 канала
Частота                                  : 48,0 КГц
Метод сжатия                             : С потерями
Размер потока                            : 21,9 Мбайт (6%)
Выравнивание                             : Соединение по промежуткам
Продолжительность промежутка             : 40  мс. (1,00 видеокадр)
Время предзагрузки промежутка            : 504  мс.
Библиотека кодирования                   : LAME3.99
Настройки программы                      : -m s -V 4 -q 0 -lowpass 17 -b 128
Buick Centurion (1956) and Plymouth Explorer (1954)
Код:
Общее
Формат                                   : AVI
Формат/Информация                        : Audio Video Interleave
Размер файла                             : 366 Мбайт
Продолжительность                        : 23 м.
Общий поток                              : 2138 Кбит/сек
Программа кодирования                    : VirtualDubMod 1.5.10.2 (build 2540/release)
Библиотека кодирования                   : VirtualDubMod build 2540/release
Видео
Идентификатор                            : 0
Формат                                   : MPEG-4 Visual
Параметр BVOP формата                    : 1
Параметр QPel формата                    : Нет
Параметр GMC формата                     : Без точки перехода
Параметр матрицы формата                 : Default (H.263)
Режим смешивания                         : Сжатый битовый поток
Идентификатор кодека                     : DX50
Идентификатор кодека/Подсказка           : DivX 5
Продолжительность                        : 23 м.
Битрейт                                  : 2001 Кбит/сек
Ширина                                   : 720 пикселей
Высота                                   : 400 пикселей
Соотношение сторон                       : 16:9
Частота кадров                           : 25,000 кадров/сек
Цветовое пространство                    : YUV
Субдискретизация насыщенности            : 4:2:0
Битовая глубина                          : 8 бит
Тип развёртки                            : Прогрессивная
Метод сжатия                             : С потерями
Бит/(Пиксели*Кадры)                      : 0.278
Размер потока                            : 343 Мбайт (94%)
Библиотека кодирования                   : DivX 3330
Аудио
Идентификатор                            : 1
Формат                                   : MPEG Audio
Версия формата                           : Version 1
Профиль формата                          : Layer 3
Идентификатор кодека                     : 55
Идентификатор кодека/Подсказка           : MP3
Продолжительность                        : 23 м.
Вид битрейта                             : Постоянный
Битрейт                                  : 128 Кбит/сек
Каналы                                   : 2 канала
Частота                                  : 48,0 КГц
Метод сжатия                             : С потерями
Размер потока                            : 21,9 Мбайт (6%)
Выравнивание                             : Соединение по промежуткам
Продолжительность промежутка             : 40  мс. (1,00 видеокадр)
Время предзагрузки промежутка            : 504  мс.
Библиотека кодирования                   : LAME3.99
Настройки программы                      : -m s -V 4 -q 0 -lowpass 17 -b 128
Buick Wildcat II (1954) and Buick Y-Job (1938)
Код:
Общее
Формат                                   : AVI
Формат/Информация                        : Audio Video Interleave
Размер файла                             : 364 Мбайт
Продолжительность                        : 23 м.
Общий поток                              : 2138 Кбит/сек
Программа кодирования                    : VirtualDubMod 1.5.10.2 (build 2540/release)
Библиотека кодирования                   : VirtualDubMod build 2540/release
Видео
Идентификатор                            : 0
Формат                                   : MPEG-4 Visual
Параметр BVOP формата                    : 1
Параметр QPel формата                    : Нет
Параметр GMC формата                     : Без точки перехода
Параметр матрицы формата                 : Default (H.263)
Режим смешивания                         : Сжатый битовый поток
Идентификатор кодека                     : DX50
Идентификатор кодека/Подсказка           : DivX 5
Продолжительность                        : 23 м.
Битрейт                                  : 2000 Кбит/сек
Ширина                                   : 720 пикселей
Высота                                   : 400 пикселей
Соотношение сторон                       : 16:9
Частота кадров                           : 25,000 кадров/сек
Цветовое пространство                    : YUV
Субдискретизация насыщенности            : 4:2:0
Битовая глубина                          : 8 бит
Тип развёртки                            : Прогрессивная
Метод сжатия                             : С потерями
Бит/(Пиксели*Кадры)                      : 0.278
Размер потока                            : 341 Мбайт (94%)
Библиотека кодирования                   : DivX 3330
Аудио
Идентификатор                            : 1
Формат                                   : MPEG Audio
Версия формата                           : Version 1
Профиль формата                          : Layer 3
Идентификатор кодека                     : 55
Идентификатор кодека/Подсказка           : MP3
Продолжительность                        : 23 м.
Вид битрейта                             : Постоянный
Битрейт                                  : 128 Кбит/сек
Каналы                                   : 2 канала
Частота                                  : 48,0 КГц
Метод сжатия                             : С потерями
Размер потока                            : 21,8 Мбайт (6%)
Выравнивание                             : Соединение по промежуткам
Продолжительность промежутка             : 40  мс. (1,00 видеокадр)
Время предзагрузки промежутка            : 504  мс.
Библиотека кодирования                   : LAME3.99
Настройки программы                      : -m s -V 4 -q 0 -lowpass 17 -b 128
Cadillac Cyclone (1959) and Buick Phantom (1977)
Код:
Общее
Формат                                   : AVI
Формат/Информация                        : Audio Video Interleave
Размер файла                             : 366 Мбайт
Продолжительность                        : 23 м.
Общий поток                              : 2137 Кбит/сек
Программа кодирования                    : VirtualDubMod 1.5.10.2 (build 2540/release)
Библиотека кодирования                   : VirtualDubMod build 2540/release
Видео
Идентификатор                            : 0
Формат                                   : MPEG-4 Visual
Параметр BVOP формата                    : 1
Параметр QPel формата                    : Нет
Параметр GMC формата                     : Без точки перехода
Параметр матрицы формата                 : Default (H.263)
Режим смешивания                         : Сжатый битовый поток
Идентификатор кодека                     : DX50
Идентификатор кодека/Подсказка           : DivX 5
Продолжительность                        : 23 м.
Битрейт                                  : 2000 Кбит/сек
Ширина                                   : 720 пикселей
Высота                                   : 400 пикселей
Соотношение сторон                       : 16:9
Частота кадров                           : 25,000 кадров/сек
Цветовое пространство                    : YUV
Субдискретизация насыщенности            : 4:2:0
Битовая глубина                          : 8 бит
Тип развёртки                            : Прогрессивная
Метод сжатия                             : С потерями
Бит/(Пиксели*Кадры)                      : 0.278
Размер потока                            : 342 Мбайт (94%)
Библиотека кодирования                   : DivX 3330
Аудио
Идентификатор                            : 1
Формат                                   : MPEG Audio
Версия формата                           : Version 1
Профиль формата                          : Layer 3
Идентификатор кодека                     : 55
Идентификатор кодека/Подсказка           : MP3
Продолжительность                        : 23 м.
Вид битрейта                             : Постоянный
Битрейт                                  : 128 Кбит/сек
Каналы                                   : 2 канала
Частота                                  : 48,0 КГц
Метод сжатия                             : С потерями
Размер потока                            : 21,9 Мбайт (6%)
Выравнивание                             : Соединение по промежуткам
Продолжительность промежутка             : 40  мс. (1,00 видеокадр)
Время предзагрузки промежутка            : 504  мс.
Библиотека кодирования                   : LAME3.99
Настройки программы                      : -m s -V 4 -q 0 -lowpass 17 -b 128
Ford Mustang (1962) and GM Firebird III (1959)
Код:
Общее
Формат                                   : AVI
Формат/Информация                        : Audio Video Interleave
Размер файла                             : 352 Мбайт
Продолжительность                        : 23 м.
Общий поток                              : 2057 Кбит/сек
Программа кодирования                    : VirtualDubMod 1.5.10.2 (build 2540/release)
Библиотека кодирования                   : VirtualDubMod build 2540/release
Видео
Идентификатор                            : 0
Формат                                   : MPEG-4 Visual
Параметр BVOP формата                    : 1
Параметр QPel формата                    : Нет
Параметр GMC формата                     : Без точки перехода
Параметр матрицы формата                 : Default (H.263)
Режим смешивания                         : Сжатый битовый поток
Идентификатор кодека                     : DX50
Идентификатор кодека/Подсказка           : DivX 5
Продолжительность                        : 23 м.
Битрейт                                  : 2000 Кбит/сек
Ширина                                   : 720 пикселей
Высота                                   : 400 пикселей
Соотношение сторон                       : 16:9
Частота кадров                           : 25,000 кадров/сек
Цветовое пространство                    : YUV
Субдискретизация насыщенности            : 4:2:0
Битовая глубина                          : 8 бит
Тип развёртки                            : Прогрессивная
Метод сжатия                             : С потерями
Бит/(Пиксели*Кадры)                      : 0.278
Размер потока                            : 342 Мбайт (97%)
Библиотека кодирования                   : DivX 3330
Аудио
Идентификатор                            : 1
Формат                                   : MPEG Audio
Версия формата                           : Version 1
Профиль формата                          : Layer 3
Идентификатор кодека                     : 55
Идентификатор кодека/Подсказка           : MP3
Продолжительность                        : 23 м.
Вид битрейта                             : Постоянный
Битрейт                                  : 48,0 Кбит/сек
Каналы                                   : 1 канал
Частота                                  : 48,0 КГц
Метод сжатия                             : С потерями
Размер потока                            : 8,22 Мбайт (2%)
Выравнивание                             : Соединение по промежуткам
Продолжительность промежутка             : 40  мс. (1,00 видеокадр)
Время предзагрузки промежутка            : 504  мс.
Ford X-100 (1953) and Chrysler Turbine (1963)
Код:
Общее
Формат                                   : AVI
Формат/Информация                        : Audio Video Interleave
Размер файла                             : 366 Мбайт
Продолжительность                        : 23 м.
Общий поток                              : 2139 Кбит/сек
Программа кодирования                    : VirtualDubMod 1.5.10.2 (build 2540/release)
Библиотека кодирования                   : VirtualDubMod build 2540/release
Видео
Идентификатор                            : 0
Формат                                   : MPEG-4 Visual
Параметр BVOP формата                    : 1
Параметр QPel формата                    : Нет
Параметр GMC формата                     : Без точки перехода
Параметр матрицы формата                 : Default (H.263)
Режим смешивания                         : Сжатый битовый поток
Идентификатор кодека                     : DX50
Идентификатор кодека/Подсказка           : DivX 5
Продолжительность                        : 23 м.
Битрейт                                  : 2001 Кбит/сек
Ширина                                   : 720 пикселей
Высота                                   : 400 пикселей
Соотношение сторон                       : 16:9
Частота кадров                           : 25,000 кадров/сек
Цветовое пространство                    : YUV
Субдискретизация насыщенности            : 4:2:0
Битовая глубина                          : 8 бит
Тип развёртки                            : Прогрессивная
Метод сжатия                             : С потерями
Бит/(Пиксели*Кадры)                      : 0.278
Размер потока                            : 343 Мбайт (94%)
Библиотека кодирования                   : DivX 3330
Аудио
Идентификатор                            : 1
Формат                                   : MPEG Audio
Версия формата                           : Version 1
Профиль формата                          : Layer 3
Идентификатор кодека                     : 55
Идентификатор кодека/Подсказка           : MP3
Продолжительность                        : 23 м.
Вид битрейта                             : Постоянный
Битрейт                                  : 128 Кбит/сек
Каналы                                   : 2 канала
Частота                                  : 48,0 КГц
Метод сжатия                             : С потерями
Размер потока                            : 21,9 Мбайт (6%)
Выравнивание                             : Соединение по промежуткам
Продолжительность промежутка             : 40  мс. (1,00 видеокадр)
Время предзагрузки промежутка            : 504  мс.
Библиотека кодирования                   : LAME3.99
Настройки программы                      : -m s -V 4 -q 0 -lowpass 17 -b 128
GM Firebird II (1956) and Cadillac Series 62 Coupe (1953)
Код:
Общее
Формат                                   : AVI
Формат/Информация                        : Audio Video Interleave
Размер файла                             : 366 Мбайт
Продолжительность                        : 23 м.
Общий поток                              : 2138 Кбит/сек
Программа кодирования                    : VirtualDubMod 1.5.10.2 (build 2540/release)
Библиотека кодирования                   : VirtualDubMod build 2540/release
Видео
Идентификатор                            : 0
Формат                                   : MPEG-4 Visual
Параметр BVOP формата                    : 1
Параметр QPel формата                    : Нет
Параметр GMC формата                     : Без точки перехода
Параметр матрицы формата                 : Default (H.263)
Режим смешивания                         : Сжатый битовый поток
Идентификатор кодека                     : DX50
Идентификатор кодека/Подсказка           : DivX 5
Продолжительность                        : 23 м.
Битрейт                                  : 2000 Кбит/сек
Ширина                                   : 720 пикселей
Высота                                   : 400 пикселей
Соотношение сторон                       : 16:9
Частота кадров                           : 25,000 кадров/сек
Цветовое пространство                    : YUV
Субдискретизация насыщенности            : 4:2:0
Битовая глубина                          : 8 бит
Тип развёртки                            : Прогрессивная
Метод сжатия                             : С потерями
Бит/(Пиксели*Кадры)                      : 0.278
Размер потока                            : 343 Мбайт (94%)
Библиотека кодирования                   : DivX 3330
Аудио
Идентификатор                            : 1
Формат                                   : MPEG Audio
Версия формата                           : Version 1
Профиль формата                          : Layer 3
Идентификатор кодека                     : 55
Идентификатор кодека/Подсказка           : MP3
Продолжительность                        : 23 м.
Вид битрейта                             : Постоянный
Битрейт                                  : 128 Кбит/сек
Каналы                                   : 2 канала
Частота                                  : 48,0 КГц
Метод сжатия                             : С потерями
Размер потока                            : 21,9 Мбайт (6%)
Выравнивание                             : Соединение по промежуткам
Продолжительность промежутка             : 40  мс. (1,00 видеокадр)
Время предзагрузки промежутка            : 504  мс.
Библиотека кодирования                   : LAME3.99
Настройки программы                      : -m s -V 4 -q 0 -lowpass 17 -b 128
GM Futurliner (1953) and Ford Thunderbird Italien (1963)
Код:
Общее
Формат                                   : AVI
Формат/Информация                        : Audio Video Interleave
Размер файла                             : 366 Мбайт
Продолжительность                        : 23 м.
Общий поток                              : 2138 Кбит/сек
Программа кодирования                    : VirtualDubMod 1.5.10.2 (build 2540/release)
Библиотека кодирования                   : VirtualDubMod build 2540/release
Видео
Идентификатор                            : 0
Формат                                   : MPEG-4 Visual
Параметр BVOP формата                    : 1
Параметр QPel формата                    : Нет
Параметр GMC формата                     : Без точки перехода
Параметр матрицы формата                 : Default (H.263)
Режим смешивания                         : Сжатый битовый поток
Идентификатор кодека                     : DX50
Идентификатор кодека/Подсказка           : DivX 5
Продолжительность                        : 23 м.
Битрейт                                  : 2000 Кбит/сек
Ширина                                   : 720 пикселей
Высота                                   : 400 пикселей
Соотношение сторон                       : 16:9
Частота кадров                           : 25,000 кадров/сек
Цветовое пространство                    : YUV
Субдискретизация насыщенности            : 4:2:0
Битовая глубина                          : 8 бит
Тип развёртки                            : Прогрессивная
Метод сжатия                             : С потерями
Бит/(Пиксели*Кадры)                      : 0.278
Размер потока                            : 343 Мбайт (94%)
Библиотека кодирования                   : DivX 3330
Аудио
Идентификатор                            : 1
Формат                                   : MPEG Audio
Версия формата                           : Version 1
Профиль формата                          : Layer 3
Идентификатор кодека                     : 55
Идентификатор кодека/Подсказка           : MP3
Продолжительность                        : 23 м.
Вид битрейта                             : Постоянный
Битрейт                                  : 128 Кбит/сек
Каналы                                   : 2 канала
Частота                                  : 48,0 КГц
Метод сжатия                             : С потерями
Размер потока                            : 21,9 Мбайт (6%)
Выравнивание                             : Соединение по промежуткам
Продолжительность промежутка             : 40  мс. (1,00 видеокадр)
Время предзагрузки промежутка            : 504  мс.
Библиотека кодирования                   : LAME3.99
Настройки программы                      : -m s -V 4 -q 0 -lowpass 17 -b 128
GM Le Sabre (1951) and Buick XP-300 (1951)
Код:
Общее
Формат                                   : AVI
Формат/Информация                        : Audio Video Interleave
Размер файла                             : 366 Мбайт
Продолжительность                        : 23 м.
Общий поток                              : 2137 Кбит/сек
Программа кодирования                    : VirtualDubMod 1.5.10.2 (build 2540/release)
Библиотека кодирования                   : VirtualDubMod build 2540/release
Видео
Идентификатор                            : 0
Формат                                   : MPEG-4 Visual
Параметр BVOP формата                    : 1
Параметр QPel формата                    : Нет
Параметр GMC формата                     : Без точки перехода
Параметр матрицы формата                 : Default (H.263)
Режим смешивания                         : Сжатый битовый поток
Идентификатор кодека                     : DX50
Идентификатор кодека/Подсказка           : DivX 5
Продолжительность                        : 23 м.
Битрейт                                  : 1999 Кбит/сек
Ширина                                   : 720 пикселей
Высота                                   : 400 пикселей
Соотношение сторон                       : 16:9
Частота кадров                           : 25,000 кадров/сек
Цветовое пространство                    : YUV
Субдискретизация насыщенности            : 4:2:0
Битовая глубина                          : 8 бит
Тип развёртки                            : Прогрессивная
Метод сжатия                             : С потерями
Бит/(Пиксели*Кадры)                      : 0.278
Размер потока                            : 342 Мбайт (94%)
Библиотека кодирования                   : DivX 3330
Аудио
Идентификатор                            : 1
Формат                                   : MPEG Audio
Версия формата                           : Version 1
Профиль формата                          : Layer 3
Идентификатор кодека                     : 55
Идентификатор кодека/Подсказка           : MP3
Продолжительность                        : 23 м.
Вид битрейта                             : Постоянный
Битрейт                                  : 128 Кбит/сек
Каналы                                   : 2 канала
Частота                                  : 48,0 КГц
Метод сжатия                             : С потерями
Размер потока                            : 21,9 Мбайт (6%)
Выравнивание                             : Соединение по промежуткам
Продолжительность промежутка             : 40  мс. (1,00 видеокадр)
Время предзагрузки промежутка            : 504  мс.
Библиотека кодирования                   : LAME3.99
Настройки программы                      : -m s -V 4 -q 0 -lowpass 17 -b 128
GM XP-21 Firebird I (1954) and Mercury D528 (1955)
Код:
Общее
Формат                                   : AVI
Формат/Информация                        : Audio Video Interleave
Размер файла                             : 366 Мбайт
Продолжительность                        : 23 м.
Общий поток                              : 2139 Кбит/сек
Программа кодирования                    : VirtualDubMod 1.5.10.2 (build 2540/release)
Библиотека кодирования                   : VirtualDubMod build 2540/release
Видео
Идентификатор                            : 0
Формат                                   : MPEG-4 Visual
Параметр BVOP формата                    : 1
Параметр QPel формата                    : Нет
Параметр GMC формата                     : Без точки перехода
Параметр матрицы формата                 : Default (H.263)
Режим смешивания                         : Сжатый битовый поток
Идентификатор кодека                     : DX50
Идентификатор кодека/Подсказка           : DivX 5
Продолжительность                        : 23 м.
Битрейт                                  : 2002 Кбит/сек
Ширина                                   : 720 пикселей
Высота                                   : 400 пикселей
Соотношение сторон                       : 16:9
Частота кадров                           : 25,000 кадров/сек
Цветовое пространство                    : YUV
Субдискретизация насыщенности            : 4:2:0
Битовая глубина                          : 8 бит
Тип развёртки                            : Прогрессивная
Метод сжатия                             : С потерями
Бит/(Пиксели*Кадры)                      : 0.278
Размер потока                            : 343 Мбайт (94%)
Библиотека кодирования                   : DivX 3330
Аудио
Идентификатор                            : 1
Формат                                   : MPEG Audio
Версия формата                           : Version 1
Профиль формата                          : Layer 3
Идентификатор кодека                     : 55
Идентификатор кодека/Подсказка           : MP3
Продолжительность                        : 23 м.
Вид битрейта                             : Постоянный
Битрейт                                  : 128 Кбит/сек
Каналы                                   : 2 канала
Частота                                  : 48,0 КГц
Метод сжатия                             : С потерями
Размер потока                            : 21,9 Мбайт (6%)
Выравнивание                             : Соединение по промежуткам
Продолжительность промежутка             : 40  мс. (1,00 видеокадр)
Время предзагрузки промежутка            : 504  мс.
Библиотека кодирования                   : LAME3.99
Настройки программы                      : -m s -V 4 -q 0 -lowpass 17 -b 128
Скриншоты
Alfa Romeo BAT 5 (1953) and Dodge Firearrow II (1954)

Alfa Romeo BAT 7 (1954) and Dodge Firearrow IV (1954)

Alfa Romeo BAT 9 (1955) and Dodge Firebomb (1955)

Buick Centurion (1956) and Plymouth Explorer (1954)

Buick Wildcat II (1954) and Buick Y-Job (1938)

Cadillac Cyclone (1959) and Buick Phantom (1977)

Ford Mustang (1962) and GM Firebird III (1959)

Ford X-100 (1953) and Chrysler Turbine (1963)

GM Firebird II (1956) and Cadillac Series 62 Coupe (1953)

GM Futurliner (1953) and Ford Thunderbird Italien (1963)

GM Le Sabre (1951) and Buick XP-300 (1951)

GM XP-21 Firebird I (1954) and Mercury D528 (1955)
Download
Сайт не распространяет и не хранит электронные версии произведений, а лишь предоставляет доступ к создаваемому пользователями каталогу ссылок на торрент-файлы, которые содержат только списки хеш-сумм
Как скачивать? (для скачивания .torrent файлов необходима регистрация)
[Профиль]  [ЛС] 

crazynike94

Top Seed 03* 160r

Стаж: 9 лет 4 месяца

Сообщений: 636

crazynike94 · 17-Авг-12 19:13 (спустя 7 дней)

17.08.2012
Торрент обновлен: Все серии полностью обновлены. Убран эффект интерлейсинга, более качественный звук. Добавлена 3-я серия.
[Профиль]  [ЛС] 

crazynike94

Top Seed 03* 160r

Стаж: 9 лет 4 месяца

Сообщений: 636

crazynike94 · 25-Авг-12 13:17 (спустя 7 дней)

25.08.2012
Торрент обновлен: Добавлена 4-я серия GM Futurliner (1953) and Ford Thunderbird Italien (1963).
[Профиль]  [ЛС] 

crazynike94

Top Seed 03* 160r

Стаж: 9 лет 4 месяца

Сообщений: 636

crazynike94 · 01-Сен-12 10:27 (спустя 6 дней, ред. 29-Сен-12 11:35)

01.09.2012
Торрент обновлен: Добавлена 5-я серия Alfa Romeo BAT 5 (1953) and Dodge Firearrow II (1954).



07.09.2012
Торрент обновлен: Добавлена 6-я серия Alfa Romeo BAT 7 (1954) and Dodge Firearrow IV (1954).



14.09.2012
Торрент обновлен: Добавлена 7-я серия Alfa Romeo BAT 9 (1955) and Dodge Firebomb (1955).



21.09.2012
Торрент обновлен: Добавлена 8-я серия Buick Centurion (1956) and Plymouth Explorer (1954).
[Профиль]  [ЛС] 

_EGOR88_

Стаж: 7 лет 11 месяцев

Сообщений: 1


_EGOR88_ · 15-Сен-12 15:16 (спустя 14 дней)

Нужна, отличная передача. спасибо автору
[Профиль]  [ЛС] 

jpsngok

Стаж: 11 лет

Сообщений: 12

jpsngok · 27-Сен-12 03:23 (спустя 11 дней)

А еще серии будут? Отличная раздача!
[Профиль]  [ЛС] 

crazynike94

Top Seed 03* 160r

Стаж: 9 лет 4 месяца

Сообщений: 636

crazynike94 · 29-Сен-12 11:32 (спустя 2 дня 8 часов, ред. 05-Окт-12 19:26)

jpsngok: Да, если ничего такого не произойдет, то выложу все 12 серий.


29.09.2012
Торрент обновлен: Добавлена 9-я серия GM XP-21 Firebird I (1954) and Mercury D528 (1955).
[Профиль]  [ЛС] 

mesmerized

Стаж: 11 лет 9 месяцев

Сообщений: 78


mesmerized · 30-Сен-12 14:02 (спустя 1 день 2 часа)

Увидел рекламу по ТВ, попал сюда, спасибо!=)
[Профиль]  [ЛС] 

crazynike94

Top Seed 03* 160r

Стаж: 9 лет 4 месяца

Сообщений: 636

crazynike94 · 05-Окт-12 19:26 (спустя 5 дней, ред. 19-Окт-12 23:52)

05.10.2012
Торрент обновлен: Добавлена 10-я серия Ford X-100 (1953) and Chrysler Turbine (1963).



13.10.2012
Торрент обновлен: Добавлена 11-я серия Cadillac Cyclone (1959) and Buick Phantom (1977).
[Профиль]  [ЛС] 

россиянин-петр

Стаж: 9 лет 6 месяцев

Сообщений: 78


россиянин-петр · 16-Окт-12 01:03 (спустя 10 дней)

Спасибо!!! Не все серии успеваю посмотреть, но передача-то весьма интересная. Обновляйтесь, по мере сил и возможностей!!!
[Профиль]  [ЛС] 

crazynike94

Top Seed 03* 160r

Стаж: 9 лет 4 месяца

Сообщений: 636

crazynike94 · 19-Окт-12 23:52 (спустя 3 дня, ред. 19-Окт-12 23:52)

20.10.2012
Торрент обновлен: Добавлена последняя, 12-я серия GM Firebird II (1956) and Cadillac Series 62 Coupe (1953).



Возможно потом упорядочу, как положено. Есть исходники на 17.2 Гб, если кому-то нужно (качество там, естественно, лучше) или если кто может лучше перекодировать могу выложить. Отписывайтесь ниже.
[Профиль]  [ЛС] 

Vinnipuxxx

Стаж: 10 лет 6 месяцев

Сообщений: 34

Vinnipuxxx · 20-Окт-12 13:53 (спустя 14 часов, ред. 20-Окт-12 23:47)

Супер! Спасибо за последнюю серию. Пересмотрел все и хочу еще! Меня "ломает" хочу еще красавиц!!!
Кстати сейчас по Discavery World тоже показывают Mystery Cars. Вот только не знаю какие серии - новые или старые, случайно один раз на самую концовку попал, вот и решил на трекере поискать.
[Профиль]  [ЛС] 

Pos1k

Стаж: 7 лет 10 месяцев

Сообщений: 3


Pos1k · 05-Май-13 20:46 (спустя 6 месяцев)

Благодарю за раздачу,только сидов нету...Было бы здорово если бы Вы добавили программу Сталь и Стиль/Style in Steel,а то нигде найти не могу
[Профиль]  [ЛС] 

Veronica_von_Abyss

Стаж: 8 лет 8 месяцев

Сообщений: 6

Veronica_von_Abyss · 17-Янв-14 12:12 (спустя 8 месяцев)

Смотрю с удовольствием, отличная подборка!
Качала, правда, не у вас, но сути это не меняет - просмотра стоит, а Бьюик Центурион просто убил своим видом - конфетка!)
[Профиль]  [ЛС] 

trezvennik

Стаж: 9 лет 5 месяцев

Сообщений: 1


trezvennik · 24-Янв-15 20:36 (спустя 1 год)

Люди добрые, станьте на раздачу!!! Очень уж посмотреть данный сериал хочется!
[Профиль]  [ЛС] 

galkin698299

Стаж: 3 года 11 месяцев

Сообщений: 118


galkin698299 · 31-Мар-16 09:40 (спустя 1 год 2 месяца)

....НАРОД а на раздаче может кто появится??????????!!!!!!!!!!!!!!!!!!!!!!!!!!
[Профиль]  [ЛС] 
 
Ответить
Loading...
Error