National Geographic. Суперсооружения. Мегазаводы. Экстремальная железная дорога / MegaStructures. Megafactories. Extreme Railway [2011, Документальный, HDTV / 1080i]

Страницы:  1
Ответить
Автор
Сообщение

xAlhimx

Top Seed 03* 160r

Стаж: 7 лет 9 месяцев

Сообщений: 625

xAlhimx · 09-Фев-14 16:45 (5 лет 6 месяцев назад, ред. 09-Фев-14 22:16)

Суперсооружения. Мегазаводы. Экстремальная / MegaStructures. Megafactories. Extreme Railway
Год выпуска: 2011
Страна: США
Жанр: Документальный
Продолжительность: 00:44:59
Перевод: Одноголосый закадровый
Русские субтитры: нет
Описание: Самая высокогорная в мире Цинхай-Тибет, протяженностью 1000 км - это поистине выдающееся достижение в области инженерной мысли. Вы узнаете, с какими сложностями пришлось столкнуться инженерам и строителям при постройке железной дороги, значительная часть которой пролегает на высотах более 4-х тысяч метров и как им удалось преодолеть их...

Качество: HDTV
Формат: MKV
Видео: MPEG-4 | AVC | H.264 | 1920x1080i (16:9) | 25.000 fps | ~5 721 kbps
Аудио: MPEG/L2 | 48KHz | 2.0 chanells | ~192 kbps [RUS]

MediaInfo
General
Unique ID : 27522283610092593182791470228211748572 (0x14B49958FF9E8B8CD48CEA9BC893CEDC)
Complete name : A:\Фильмы\NG.Megastructures.Extreme.Railway.mkv
Format : Matroska
Format version : Version 2
File size : 1.90 GiB
Duration : 44mn 59s
Overall bit rate mode : Variable
Overall bit rate : 6 033 Kbps
Writing application : Lavf52.64.2
Writing library : Lavf52.64.2
Video
ID : 1
Format : AVC
Format/Info : Advanced Video Codec
Format profile : [email protected]
Format settings, CABAC : Yes
Format settings, ReFrames : 3 frames
Codec ID : V_MPEG4/ISO/AVC
Duration : 44mn 59s
Bit rate mode : Variable
Bit rate : 5 721 Kbps
Maximum bit rate : 9 000 Kbps
Width : 1 920 pixels
Height : 1 080 pixels
Display aspect ratio : 16:9
Frame rate mode : Constant
Frame rate : 25.000 fps
Standard : PAL
Color space : YUV
Chroma subsampling : 4:2:0
Bit depth : 8 bits
Scan type : Interlaced
Scan order : Top Field First
Bits/(Pixel*Frame) : 0.110
Stream size : 1.80 GiB (95%)
Default : Yes
Forced : No
Color primaries : BT.709
Transfer characteristics : BT.709
Matrix coefficients : BT.709
Audio
ID : 2
Format : MPEG Audio
Format version : Version 1
Format profile : Layer 2
Codec ID : A_MPEG/L2
Codec ID/Hint : MP2
Duration : 44mn 59s
Bit rate mode : Constant
Bit rate : 192 Kbps
Channel(s) : 2 channels
Sampling rate : 48.0 KHz
Compression mode : Lossy
Stream size : 61.8 MiB (3%)
Language : Russian
Default : Yes
Forced : No

Скриншоты
Download
Сайт не распространяет и не хранит электронные версии произведений, а лишь предоставляет доступ к создаваемому пользователями каталогу ссылок на торрент-файлы, которые содержат только списки хеш-сумм
Как скачивать? (для скачивания .torrent файлов необходима регистрация)
[Профиль]  [ЛС] 

-Ac-

Стаж: 10 лет 1 месяц

Сообщений: 65

-Ac- · 27-Мар-14 21:59 (спустя 1 месяц 18 дней)

Это суперсооружения а не мегазаводы! Мегазаводы рассказывает конкретно про заводы
[Профиль]  [ЛС] 

[email protected]

Стаж: 9 лет 7 месяцев

Сообщений: 40

[email protected] · 16-Июн-14 17:11 (спустя 2 месяца 19 дней, ред. 16-Июн-14 17:11)

Достойное для просмотра видео с интересным сюжетом, не "HD" (хочется лучшего), но интересное настолько, что на видео внимание не обращаешь, рекомендую! Раздающему спасибо.
[Профиль]  [ЛС] 
 
Ответить
Loading...
Error