Gregorian - Live! Masters Of Chant Final Chapter Tour [2018, New Age, Crossover, Gregorian chant, BD=>DVD9+DVD5]

Страницы:  1

Ответить
Автор
Сообщение

Zhyvana

Moderator gray

Стаж: 8 лет 8 месяцев

Сообщений: 2459

Zhyvana · 26-Июл-18 00:26 (11 месяцев назад)

Gregorian - Live! Masters Of Chant Final Chapter Tour
Страна: Germany
Жанр: New Age, Crossover, Gregorian chant
Продолжительность: 01:50:44+00:58:13
Год выпуска: 2018
Описание: This spectacular live documentary in sound and vision is now the grand finale of the "Masters of Chant" series and leaves the viewer full 29 hits from more than 15 years Gregorian. "LIVE! Masters Of Chant - Final Chapter Tour "was recorded in May 2016 during the first part of the Final Chapter Tour in Berlin and offers impressive pictures. Whether the overwhelming success of the tour will be more dates of the Final Chapter Tour in early 2017, with which the chapter is finally closed.
Треклист:
DVD1
Act One
01. Master Of Chant
02. Still Haven't Found What I'm Looking For / Only You
03. Stay
04. Join Me
05. Lady In Black
06. Meadows Of Heaven
07. Now We Are Free
08. Strong
09. Shout
10. Cry Softly
Act Two
11. Hurt
12. The Raven
13. Kiss From A Rose
14. Crying In The Rain
15. Caruso
16. One
17. World Without End
18. Born To Feel Alive
19. Hells Bells
20. In My Life / Crazy, Crazy Nights / Good Night, Companions
21. Time To Say Goodbye
DVD2
Encores
22. Gloria
23. Moment Of Peace
24. Hymn
25. Just For You
26. Sky & Sand
27. Credits
Bonus:
01. World Without End (Music Video)
02. Gloria (Music Video)
03. Frozen World (Music Video)
04. Mistletoe And Wine (Music Video)
05. Masters Of Chant (Promo Video)
06. Just For You (Fun Video)
07. Behid The Scenes Featurette
.
.
.
.
.
.
.

Доп. информация: Исходник: Blu-ray (Спасибо oleg-1937).
Сделано по заявке CHKA1961 и ему же большое спасибо за любезно предоставленную LPCM аудиодорожку и консультации по созданию этого релиза.
Меню анимированное созданное на основе исходного.
Полученный результат проверен на работоспособность на софтовом Media Player Classic Home Cinema, записан на болванку с помощью ImgBurn и вновь проверен уже на бытовом плеере.

Программы, использованные при создании этого релиза
Подготовка исходника
SolveigMM Video Splitter Business Edition
tsMuxeR
Демуксинг
eac3to
HdBrStreamExtractor
Обработка видео
DGDecodeNV
AviSynth
Rhozet Carbon Coder
Обработка аудио
Audacity
DTS-HD Master Audio Suite
Создание меню
Snagit
AviSynth
Rhozet Carbon Coder
Авторинг и проверка
MPEG Video Wizard DVD
Muxman
DVD-lab PRO
DvdReMakePro
DVD1

DVD2
Скрипт
LoadPlugin("C:\Portable\DGDecNV2050\DGDecodeNV.dll")
DGSource("M:\AutoringDVD\Gregorian - Live Masters Of Chant Final Chapter Tour\Part1\1_1_video.dgi")
LoadPlugin("C:\Program Files (x86)\AviSynth 2.5\plugins\TDeint.dll")
TDeint(mode=1)
Lanczos4Resize(720,480)
AssumeTFF()
SeparateFields()
SelectEvery(4,0,3)
Weave()
LoadPlugin("C:\Program Files (x86)\AviSynth 2.5\plugins\AutoYUY2.dll")
AutoYUY2()
LoadPlugin("C:\Program Files (x86)\AviSynth 2.5\plugins\ColorMatrix.dll")
ColorMatrix(mode="Rec.709->Rec.601", inputFR=false, clamp=0)
Точка перехода


DVD1
Разбивка на главы по трекам: есть
Качество : BD=>DVD9
Формат: DVD video
Видео кодек: MPEG2
Аудио кодек: PCM, DTS
Видео: NTSC 16:9 (720x480) VBR Auto Letterboxed, ~66667(6800) Kbps, 29.970 fps
Аудио: English (LinearPCM, 2 ch), 1536 Kbps, 48.0 KHz
Аудио2: English (DTS, 6 ch), 1510 Kbps, 48.0 KHz
DVDinfo+MI
Title: DVD1
Size: 7.81 Gb ( 8 193 616,00 KBytes ) - DVD-9
Enabled regions: 1, 2, 3, 4, 5, 6, 7, 8
VTS_01 :
Play Length: 01:50:44
Video: NTSC 16:9 (720x480) VBR, Auto Letterboxed
Audio:
English (LinearPCM, 2 ch)
English (DTS, 6 ch)
* Menus Information *
VIDEO_TS Menu
Video:
NTSC 16:9 (720x480) VBR
Auto Letterboxed
Audio:
Not specified (Dolby AC3, 2 ch)
English Language Unit :
Title Menu
VTS_01 Menu
Video:
NTSC 16:9 (720x480) VBR
Auto Letterboxed
Audio:
Not specified (Dolby AC3, 2 ch)
English Language Unit :
Root Menu
General
Complete name : N:\Music Video\DVD\Gregorian - Live! Masters Of Chant Final Chapter Tour\DVD1\VIDEO_TS\VIDEO_TS.BUP
Format : DVD Video
Format profile : Menu
File size : 12.0 KiB
Overall bit rate mode : Variable
FileExtension_Invalid : ifo
Video
ID : 224 (0xE0)
Format : MPEG Video
Format version : Version 2
Bit rate mode : Variable
Width : 720 pixels
Height : 480 pixels
Display aspect ratio : 16:9
Frame rate : 29.970 (29970/1000) FPS
Standard : NTSC
Compression mode : Lossy
Audio
Format : AC-3
Format/Info : Audio Coding 3
Channel(s) : 2 channels
Sampling rate : 48.0 kHz
Compression mode : Lossy
Text
Format : RLE
Format/Info : Run-length encoding
Bit depth : 2 bits
General
Complete name : N:\Music Video\DVD\Gregorian - Live! Masters Of Chant Final Chapter Tour\DVD1\VIDEO_TS\VIDEO_TS.IFO
Format : DVD Video
Format profile : Menu
File size : 12.0 KiB
Overall bit rate mode : Variable
Video
ID : 224 (0xE0)
Format : MPEG Video
Format version : Version 2
Bit rate mode : Variable
Width : 720 pixels
Height : 480 pixels
Display aspect ratio : 16:9
Frame rate : 29.970 (29970/1000) FPS
Standard : NTSC
Compression mode : Lossy
Audio
Format : AC-3
Format/Info : Audio Coding 3
Channel(s) : 2 channels
Sampling rate : 48.0 kHz
Compression mode : Lossy
Text
Format : RLE
Format/Info : Run-length encoding
Bit depth : 2 bits
General
Complete name : N:\Music Video\DVD\Gregorian - Live! Masters Of Chant Final Chapter Tour\DVD1\VIDEO_TS\VIDEO_TS.VOB
Format : MPEG-PS
File size : 6.06 MiB
Duration : 8 s 8 ms
Overall bit rate mode : Variable
Overall bit rate : 6 351 kb/s
Video
ID : 224 (0xE0)
Format : MPEG Video
Format version : Version 2
Format profile : [email protected]
Format settings, BVOP : Yes
Format settings, Matrix : Custom
Format settings, GOP : M=3, N=15
Format settings, picture structure : Frame
Duration : 8 s 8 ms
Bit rate mode : Variable
Bit rate : 6 000 kb/s
Maximum bit rate : 8 000 kb/s
Width : 720 pixels
Height : 480 pixels
Display aspect ratio : 16:9
Frame rate : 29.970 (30000/1001) FPS
Standard : NTSC
Color space : YUV
Chroma subsampling : 4:2:0
Bit depth : 8 bits
Scan type : Interlaced
Scan order : Top Field First
Compression mode : Lossy
Bits/(Pixel*Frame) : 0.579
Time code of first frame : 00:00:00:00
Time code source : Group of pictures header
GOP, Open/Closed : Open
GOP, Open/Closed of first frame : Closed
Stream size : 5.73 MiB (94%)
Audio
ID : 189 (0xBD)-128 (0x80)
Format : AC-3
Format/Info : Audio Coding 3
Format settings, Endianness : Big
Muxing mode : DVD-Video
Duration : 7 s 872 ms
Bit rate mode : Constant
Bit rate : 224 kb/s
Channel(s) : 2 channels
Channel positions : Front: L R
Sampling rate : 48.0 kHz
Frame rate : 31.250 FPS (1536 SPF)
Bit depth : 16 bits
Compression mode : Lossy
Stream size : 215 KiB (3%)
Service kind : Complete Main
Text #1
ID : 189 (0xBD)-32 (0x20)
Format : RLE
Format/Info : Run-length encoding
Muxing mode : DVD-Video
Text #2
ID : 189 (0xBD)-34 (0x22)
Format : RLE
Format/Info : Run-length encoding
Muxing mode : DVD-Video
Menu
General
Complete name : N:\Music Video\DVD\Gregorian - Live! Masters Of Chant Final Chapter Tour\DVD1\VIDEO_TS\VTS_01_0.BUP
Format : DVD Video
Format profile : Program
File size : 76.0 KiB
Duration : 1 h 50 min
Overall bit rate mode : Variable
Overall bit rate : 94 b/s
FileExtension_Invalid : ifo
Video
ID : 224 (0xE0)
Format : MPEG Video
Format version : Version 2
Duration : 1 h 50 min
Bit rate mode : Variable
Width : 720 pixels
Height : 480 pixels
Display aspect ratio : 16:9
Frame rate : 29.970 (29970/1000) FPS
Standard : NTSC
Compression mode : Lossy
Audio #1
ID : 0 (0x0)
Format : PCM
Duration : 1 h 50 min
Channel(s) : 2 channels
Sampling rate : 48.0 kHz
Language : English
Audio #2
ID : 137 (0x89)
Format : DTS
Format/Info : Digital Theater Systems
Duration : 1 h 50 min
Channel(s) : 6 channels
Sampling rate : 48.0 kHz
Compression mode : Lossy
Language : English
Menu
Duration : 1 h 50 min
00:00:00.000 : Chapter 1
00:06:26.500 : Chapter 2
00:11:18.400 : Chapter 3
00:15:17.800 : Chapter 4
00:19:38.300 : Chapter 5
00:24:08.533 : Chapter 6
00:29:28.033 : Chapter 7
00:33:41.666 : Chapter 8
00:37:09.632 : Chapter 9
00:43:28.965 : Chapter 10
00:48:06.465 : Chapter 11
00:53:56.765 : Chapter 12
00:58:22.165 : Chapter 13
01:03:29.331 : Chapter 14
01:08:24.697 : Chapter 15
01:15:02.230 : Chapter 16
01:20:01.330 : Chapter 17
01:23:39.096 : Chapter 18
01:33:00.362 : Chapter 19
01:41:18.895 : Chapter 20
01:46:19.395 : Chapter 21
List (Audio) : 0 / 1
General
Complete name : N:\Music Video\DVD\Gregorian - Live! Masters Of Chant Final Chapter Tour\DVD1\VIDEO_TS\VTS_01_0.IFO
Format : DVD Video
Format profile : Program
File size : 76.0 KiB
Duration : 1 h 50 min
Overall bit rate mode : Variable
Overall bit rate : 94 b/s
Video
ID : 224 (0xE0)
Format : MPEG Video
Format version : Version 2
Duration : 1 h 50 min
Bit rate mode : Variable
Width : 720 pixels
Height : 480 pixels
Display aspect ratio : 16:9
Frame rate : 29.970 (29970/1000) FPS
Standard : NTSC
Compression mode : Lossy
Audio #1
ID : 0 (0x0)
Format : PCM
Duration : 1 h 50 min
Channel(s) : 2 channels
Sampling rate : 48.0 kHz
Language : English
Audio #2
ID : 137 (0x89)
Format : DTS
Format/Info : Digital Theater Systems
Duration : 1 h 50 min
Channel(s) : 6 channels
Sampling rate : 48.0 kHz
Compression mode : Lossy
Language : English
Menu
Duration : 1 h 50 min
00:00:00.000 : Chapter 1
00:06:26.500 : Chapter 2
00:11:18.400 : Chapter 3
00:15:17.800 : Chapter 4
00:19:38.300 : Chapter 5
00:24:08.533 : Chapter 6
00:29:28.033 : Chapter 7
00:33:41.666 : Chapter 8
00:37:09.632 : Chapter 9
00:43:28.965 : Chapter 10
00:48:06.465 : Chapter 11
00:53:56.765 : Chapter 12
00:58:22.165 : Chapter 13
01:03:29.331 : Chapter 14
01:08:24.697 : Chapter 15
01:15:02.230 : Chapter 16
01:20:01.330 : Chapter 17
01:23:39.096 : Chapter 18
01:33:00.362 : Chapter 19
01:41:18.895 : Chapter 20
01:46:19.395 : Chapter 21
List (Audio) : 0 / 1
General
Complete name : N:\Music Video\DVD\Gregorian - Live! Masters Of Chant Final Chapter Tour\DVD1\VIDEO_TS\VTS_01_0.VOB
Format : MPEG-PS
File size : 147 MiB
Duration : 1 min 20 s
Overall bit rate mode : Variable
Overall bit rate : 15.4 Mb/s
Video
ID : 224 (0xE0)
Format : MPEG Video
Format version : Version 2
Format profile : [email protected]
Format settings, BVOP : Yes
Format settings, Matrix : Default
Format settings, GOP : M=3, N=15
Duration : 1 min 20 s
Bit rate mode : Variable
Bit rate : 14.9 Mb/s
Maximum bit rate : 8 500 kb/s
Width : 720 pixels
Height : 480 pixels
Display aspect ratio : 16:9
Frame rate : 29.970 (30000/1001) FPS
Standard : NTSC
Color space : YUV
Chroma subsampling : 4:2:0
Bit depth : 8 bits
Scan type : Progressive
Compression mode : Lossy
Bits/(Pixel*Frame) : 1.442
Time code of first frame : 00:00:00:00
Time code source : Group of pictures header
GOP, Open/Closed : Closed
Stream size : 143 MiB (97%)
Color primaries : BT.470 System M
Transfer characteristics : BT.470 System M
Matrix coefficients : BT.470 System B, BT.470 System G
Audio
ID : 189 (0xBD)-128 (0x80)
Format : AC-3
Format/Info : Audio Coding 3
Format settings, Endianness : Big
Muxing mode : DVD-Video
Duration : 1 min 19 s
Bit rate mode : Constant
Bit rate : 192 kb/s
Channel(s) : 2 channels
Channel positions : Front: L R
Sampling rate : 48.0 kHz
Frame rate : 31.250 FPS (1536 SPF)
Bit depth : 16 bits
Compression mode : Lossy
Stream size : 1.83 MiB (1%)
Service kind : Complete Main
Text #1
ID : 189 (0xBD)-32 (0x20)
Format : RLE
Format/Info : Run-length encoding
Muxing mode : DVD-Video
Text #2
ID : 189 (0xBD)-34 (0x22)
Format : RLE
Format/Info : Run-length encoding
Muxing mode : DVD-Video
Menu
General
Complete name : N:\Music Video\DVD\Gregorian - Live! Masters Of Chant Final Chapter Tour\DVD1\VIDEO_TS\VTS_01_1.VOB
Format : MPEG-PS
File size : 1 024 MiB
Duration : 14 min 29 s
Overall bit rate mode : Variable
Overall bit rate : 9 882 kb/s
Video
ID : 224 (0xE0)
Format : MPEG Video
Format version : Version 2
Format profile : [email protected]
Format settings, BVOP : Yes
Format settings, Matrix : Custom
Format settings, GOP : Variable
Format settings, picture structure : Frame
Duration : 14 min 29 s
Bit rate mode : Variable
Bit rate : 6 640 kb/s
Maximum bit rate : 6 800 kb/s
Width : 720 pixels
Height : 480 pixels
Display aspect ratio : 16:9
Frame rate : 29.970 (30000/1001) FPS
Standard : NTSC
Color space : YUV
Chroma subsampling : 4:2:0
Bit depth : 8 bits
Scan type : Interlaced
Scan order : Top Field First
Compression mode : Lossy
Bits/(Pixel*Frame) : 0.641
Time code of first frame : 00:00:00:00
Time code source : Group of pictures header
GOP, Open/Closed : Open
GOP, Open/Closed of first frame : Closed
Stream size : 688 MiB (67%)
Audio #1
ID : 189 (0xBD)-137 (0x89)
Format : DTS
Format/Info : Digital Theater Systems
Mode : 16
Format settings, Endianness : Big
Muxing mode : DVD-Video
Duration : 14 min 28 s
Bit rate mode : Constant
Bit rate : 1 510 kb/s
Channel(s) : 6 channels
Channel positions : Front: L C R, Side: L R, LFE
Sampling rate : 48.0 kHz
Frame rate : 93.750 FPS (512 SPF)
Bit depth : 24 bits
Compression mode : Lossy
Stream size : 156 MiB (15%)
Audio #2
ID : 189 (0xBD)-160 (0xA0)
Format : PCM
Format settings, Endianness : Big
Format settings, Sign : Signed
Muxing mode : DVD-Video
Duration : 14 min 28 s
Bit rate mode : Constant
Bit rate : 1 536 kb/s
Channel(s) : 2 channels
Sampling rate : 48.0 kHz
Bit depth : 16 bits
Stream size : 159 MiB (16%)
Menu
General
Complete name : N:\Music Video\DVD\Gregorian - Live! Masters Of Chant Final Chapter Tour\DVD1\VIDEO_TS\VTS_01_2.VOB
Format : MPEG-PS
File size : 1 024 MiB
Duration : 14 min 26 s
Overall bit rate mode : Variable
Overall bit rate : 9 918 kb/s
Video
ID : 224 (0xE0)
Format : MPEG Video
Format version : Version 2
Format profile : [email protected]
Format settings, BVOP : Yes
Format settings, Matrix : Custom
Format settings, GOP : Variable
Format settings, picture structure : Frame
Duration : 14 min 25 s
Bit rate mode : Variable
Bit rate : 6 675 kb/s
Maximum bit rate : 6 800 kb/s
Width : 720 pixels
Height : 480 pixels
Display aspect ratio : 16:9
Frame rate : 29.970 (30000/1001) FPS
Standard : NTSC
Color space : YUV
Chroma subsampling : 4:2:0
Bit depth : 8 bits
Scan type : Interlaced
Scan order : Top Field First
Compression mode : Lossy
Bits/(Pixel*Frame) : 0.644
Time code of first frame : 00:14:28:20
Time code source : Group of pictures header
Stream size : 689 MiB (67%)
Audio #1
ID : 189 (0xBD)-137 (0x89)
Format : DTS
Format/Info : Digital Theater Systems
Mode : 16
Format settings, Endianness : Big
Muxing mode : DVD-Video
Duration : 14 min 26 s
Bit rate mode : Constant
Bit rate : 1 510 kb/s
Channel(s) : 6 channels
Channel positions : Front: L C R, Side: L R, LFE
Sampling rate : 48.0 kHz
Frame rate : 93.750 FPS (512 SPF)
Bit depth : 24 bits
Compression mode : Lossy
Delay relative to video : -653 ms
Stream size : 156 MiB (15%)
Audio #2
ID : 189 (0xBD)-160 (0xA0)
Format : PCM
Format settings, Endianness : Big
Format settings, Sign : Signed
Muxing mode : DVD-Video
Duration : 14 min 26 s
Bit rate mode : Constant
Bit rate : 1 536 kb/s
Channel(s) : 2 channels
Sampling rate : 48.0 kHz
Bit depth : 16 bits
Delay relative to video : -661 ms
Stream size : 159 MiB (15%)
Menu
General
Complete name : N:\Music Video\DVD\Gregorian - Live! Masters Of Chant Final Chapter Tour\DVD1\VIDEO_TS\VTS_01_3.VOB
Format : MPEG-PS
File size : 1 024 MiB
Duration : 14 min 31 s
Overall bit rate mode : Variable
Overall bit rate : 9 854 kb/s
Video
ID : 224 (0xE0)
Format : MPEG Video
Format version : Version 2
Format profile : [email protected]
Format settings, BVOP : Yes
Format settings, Matrix : Custom
Format settings, GOP : Variable
Format settings, picture structure : Frame
Duration : 14 min 31 s
Bit rate mode : Variable
Bit rate : 6 612 kb/s
Maximum bit rate : 6 800 kb/s
Width : 720 pixels
Height : 480 pixels
Display aspect ratio : 16:9
Frame rate : 29.970 (30000/1001) FPS
Standard : NTSC
Color space : YUV
Chroma subsampling : 4:2:0
Bit depth : 8 bits
Scan type : Interlaced
Scan order : Top Field First
Compression mode : Lossy
Bits/(Pixel*Frame) : 0.638
Time code of first frame : 00:28:53:15
Time code source : Group of pictures header
Stream size : 687 MiB (67%)
Audio #1
ID : 189 (0xBD)-137 (0x89)
Format : DTS
Format/Info : Digital Theater Systems
Mode : 16
Format settings, Endianness : Big
Muxing mode : DVD-Video
Duration : 14 min 31 s
Bit rate mode : Constant
Bit rate : 1 510 kb/s
Channel(s) : 6 channels
Channel positions : Front: L C R, Side: L R, LFE
Sampling rate : 48.0 kHz
Frame rate : 93.750 FPS (512 SPF)
Bit depth : 24 bits
Compression mode : Lossy
Delay relative to video : -292 ms
Stream size : 157 MiB (15%)
Audio #2
ID : 189 (0xBD)-160 (0xA0)
Format : PCM
Format settings, Endianness : Big
Format settings, Sign : Signed
Muxing mode : DVD-Video
Duration : 14 min 31 s
Bit rate mode : Constant
Bit rate : 1 536 kb/s
Channel(s) : 2 channels
Sampling rate : 48.0 kHz
Bit depth : 16 bits
Delay relative to video : -294 ms
Stream size : 160 MiB (16%)
Menu
General
Complete name : N:\Music Video\DVD\Gregorian - Live! Masters Of Chant Final Chapter Tour\DVD1\VIDEO_TS\VTS_01_4.VOB
Format : MPEG-PS
File size : 1 024 MiB
Duration : 14 min 28 s
Overall bit rate mode : Variable
Overall bit rate : 9 892 kb/s
Video
ID : 224 (0xE0)
Format : MPEG Video
Format version : Version 2
Format profile : [email protected]
Format settings, BVOP : Yes
Format settings, Matrix : Custom
Format settings, GOP : M=3, N=15
Format settings, picture structure : Frame
Duration : 14 min 28 s
Bit rate mode : Variable
Bit rate : 6 650 kb/s
Maximum bit rate : 6 800 kb/s
Width : 720 pixels
Height : 480 pixels
Display aspect ratio : 16:9
Frame rate : 29.970 (30000/1001) FPS
Standard : NTSC
Color space : YUV
Chroma subsampling : 4:2:0
Bit depth : 8 bits
Scan type : Interlaced
Scan order : Top Field First
Compression mode : Lossy
Bits/(Pixel*Frame) : 0.642
Time code of first frame : 00:43:24:14
Time code source : Group of pictures header
GOP, Open/Closed : Open
Stream size : 688 MiB (67%)
Audio #1
ID : 189 (0xBD)-137 (0x89)
Format : DTS
Format/Info : Digital Theater Systems
Mode : 16
Format settings, Endianness : Big
Muxing mode : DVD-Video
Duration : 14 min 28 s
Bit rate mode : Constant
Bit rate : 1 510 kb/s
Channel(s) : 6 channels
Channel positions : Front: L C R, Side: L R, LFE
Sampling rate : 48.0 kHz
Frame rate : 93.750 FPS (512 SPF)
Bit depth : 24 bits
Compression mode : Lossy
Delay relative to video : -418 ms
Stream size : 156 MiB (15%)
Audio #2
ID : 189 (0xBD)-160 (0xA0)
Format : PCM
Format settings, Endianness : Big
Format settings, Sign : Signed
Muxing mode : DVD-Video
Duration : 14 min 28 s
Bit rate mode : Constant
Bit rate : 1 536 kb/s
Channel(s) : 2 channels
Sampling rate : 48.0 kHz
Bit depth : 16 bits
Delay relative to video : -418 ms
Stream size : 159 MiB (16%)
Menu
General
Complete name : N:\Music Video\DVD\Gregorian - Live! Masters Of Chant Final Chapter Tour\DVD1\VIDEO_TS\VTS_01_5.VOB
Format : MPEG-PS
File size : 1 024 MiB
Duration : 14 min 30 s
Overall bit rate mode : Variable
Overall bit rate : 9 865 kb/s
Video
ID : 224 (0xE0)
Format : MPEG Video
Format version : Version 2
Format profile : [email protected]
Format settings, BVOP : Yes
Format settings, Matrix : Custom
Format settings, GOP : M=3, N=15
Format settings, picture structure : Frame
Duration : 14 min 30 s
Bit rate mode : Variable
Bit rate : 6 623 kb/s
Maximum bit rate : 6 800 kb/s
Width : 720 pixels
Height : 480 pixels
Display aspect ratio : 16:9
Frame rate : 29.970 (30000/1001) FPS
Standard : NTSC
Color space : YUV
Chroma subsampling : 4:2:0
Bit depth : 8 bits
Scan type : Interlaced
Scan order : Top Field First
Compression mode : Lossy
Bits/(Pixel*Frame) : 0.639
Time code of first frame : 00:57:52:05
Time code source : Group of pictures header
GOP, Open/Closed : Open
Stream size : 687 MiB (67%)
Audio #1
ID : 189 (0xBD)-137 (0x89)
Format : DTS
Format/Info : Digital Theater Systems
Mode : 16
Format settings, Endianness : Big
Muxing mode : DVD-Video
Duration : 14 min 30 s
Bit rate mode : Constant
Bit rate : 1 510 kb/s
Channel(s) : 6 channels
Channel positions : Front: L C R, Side: L R, LFE
Sampling rate : 48.0 kHz
Frame rate : 93.750 FPS (512 SPF)
Bit depth : 24 bits
Compression mode : Lossy
Delay relative to video : -655 ms
Stream size : 157 MiB (15%)
Audio #2
ID : 189 (0xBD)-160 (0xA0)
Format : PCM
Format settings, Endianness : Big
Format settings, Sign : Signed
Muxing mode : DVD-Video
Duration : 14 min 30 s
Bit rate mode : Constant
Bit rate : 1 536 kb/s
Channel(s) : 2 channels
Sampling rate : 48.0 kHz
Bit depth : 16 bits
Delay relative to video : -652 ms
Stream size : 159 MiB (16%)
Menu
General
Complete name : N:\Music Video\DVD\Gregorian - Live! Masters Of Chant Final Chapter Tour\DVD1\VIDEO_TS\VTS_01_6.VOB
Format : MPEG-PS
File size : 1 024 MiB
Duration : 14 min 26 s
Overall bit rate mode : Variable
Overall bit rate : 9 911 kb/s
Video
ID : 224 (0xE0)
Format : MPEG Video
Format version : Version 2
Format profile : [email protected]
Format settings, BVOP : Yes
Format settings, Matrix : Custom
Format settings, GOP : Variable
Format settings, picture structure : Frame
Duration : 14 min 26 s
Bit rate mode : Variable
Bit rate : 6 668 kb/s
Maximum bit rate : 6 800 kb/s
Width : 720 pixels
Height : 480 pixels
Display aspect ratio : 16:9
Frame rate : 29.970 (30000/1001) FPS
Standard : NTSC
Color space : YUV
Chroma subsampling : 4:2:0
Bit depth : 8 bits
Scan type : Interlaced
Scan order : Top Field First
Compression mode : Lossy
Bits/(Pixel*Frame) : 0.644
Time code of first frame : 01:12:21:26
Time code source : Group of pictures header
Stream size : 689 MiB (67%)
Audio #1
ID : 189 (0xBD)-137 (0x89)
Format : DTS
Format/Info : Digital Theater Systems
Mode : 16
Format settings, Endianness : Big
Muxing mode : DVD-Video
Duration : 14 min 26 s
Bit rate mode : Constant
Bit rate : 1 510 kb/s
Channel(s) : 6 channels
Channel positions : Front: L C R, Side: L R, LFE
Sampling rate : 48.0 kHz
Frame rate : 93.750 FPS (512 SPF)
Bit depth : 24 bits
Compression mode : Lossy
Delay relative to video : -441 ms
Stream size : 156 MiB (15%)
Audio #2
ID : 189 (0xBD)-160 (0xA0)
Format : PCM
Format settings, Endianness : Big
Format settings, Sign : Signed
Muxing mode : DVD-Video
Duration : 14 min 26 s
Bit rate mode : Constant
Bit rate : 1 536 kb/s
Channel(s) : 2 channels
Sampling rate : 48.0 kHz
Bit depth : 16 bits
Delay relative to video : -429 ms
Stream size : 159 MiB (15%)
Menu
General
Complete name : N:\Music Video\DVD\Gregorian - Live! Masters Of Chant Final Chapter Tour\DVD1\VIDEO_TS\VTS_01_7.VOB
Format : MPEG-PS
File size : 1 024 MiB
Duration : 14 min 23 s
Overall bit rate mode : Variable
Overall bit rate : 9 950 kb/s
Video
ID : 224 (0xE0)
Format : MPEG Video
Format version : Version 2
Format profile : [email protected]
Format settings, BVOP : Yes
Format settings, Matrix : Custom
Format settings, GOP : Variable
Format settings, picture structure : Frame
Duration : 14 min 23 s
Bit rate mode : Variable
Bit rate : 6 706 kb/s
Maximum bit rate : 6 800 kb/s
Width : 720 pixels
Height : 480 pixels
Display aspect ratio : 16:9
Frame rate : 29.970 (30000/1001) FPS
Standard : NTSC
Color space : YUV
Chroma subsampling : 4:2:0
Bit depth : 8 bits
Scan type : Interlaced
Scan order : Top Field First
Compression mode : Lossy
Bits/(Pixel*Frame) : 0.647
Time code of first frame : 01:26:47:21
Time code source : Group of pictures header
Stream size : 690 MiB (67%)
Audio #1
ID : 189 (0xBD)-137 (0x89)
Format : DTS
Format/Info : Digital Theater Systems
Mode : 16
Format settings, Endianness : Big
Muxing mode : DVD-Video
Duration : 14 min 23 s
Bit rate mode : Constant
Bit rate : 1 510 kb/s
Channel(s) : 6 channels
Channel positions : Front: L C R, Side: L R, LFE
Sampling rate : 48.0 kHz
Frame rate : 93.750 FPS (512 SPF)
Bit depth : 24 bits
Compression mode : Lossy
Delay relative to video : -473 ms
Stream size : 155 MiB (15%)
Audio #2
ID : 189 (0xBD)-160 (0xA0)
Format : PCM
Format settings, Endianness : Big
Format settings, Sign : Signed
Muxing mode : DVD-Video
Duration : 14 min 23 s
Bit rate mode : Constant
Bit rate : 1 536 kb/s
Channel(s) : 2 channels
Sampling rate : 48.0 kHz
Bit depth : 16 bits
Delay relative to video : -478 ms
Stream size : 158 MiB (15%)
Menu
General
Complete name : N:\Music Video\DVD\Gregorian - Live! Masters Of Chant Final Chapter Tour\DVD1\VIDEO_TS\VTS_01_8.VOB
Format : MPEG-PS
File size : 680 MiB
Duration : 9 min 35 s
Overall bit rate mode : Variable
Overall bit rate : 9 908 kb/s
Video
ID : 224 (0xE0)
Format : MPEG Video
Format version : Version 2
Format profile : [email protected]
Format settings, BVOP : Yes
Format settings, Matrix : Custom
Format settings, GOP : Variable
Format settings, picture structure : Frame
Duration : 9 min 35 s
Bit rate mode : Variable
Bit rate : 6 665 kb/s
Maximum bit rate : 6 800 kb/s
Width : 720 pixels
Height : 480 pixels
Display aspect ratio : 16:9
Frame rate : 29.970 (30000/1001) FPS
Standard : NTSC
Color space : YUV
Chroma subsampling : 4:2:0
Bit depth : 8 bits
Scan type : Interlaced
Scan order : Top Field First
Compression mode : Lossy
Bits/(Pixel*Frame) : 0.643
Time code of first frame : 01:41:10:12
Time code source : Group of pictures header
GOP, Open/Closed : Open
Stream size : 457 MiB (67%)
Audio #1
ID : 189 (0xBD)-137 (0x89)
Format : DTS
Format/Info : Digital Theater Systems
Mode : 16
Format settings, Endianness : Big
Muxing mode : DVD-Video
Duration : 9 min 35 s
Bit rate mode : Constant
Bit rate : 1 510 kb/s
Channel(s) : 6 channels
Channel positions : Front: L C R, Side: L R, LFE
Sampling rate : 48.0 kHz
Frame rate : 93.750 FPS (512 SPF)
Bit depth : 24 bits
Compression mode : Lossy
Delay relative to video : -718 ms
Stream size : 104 MiB (15%)
Audio #2
ID : 189 (0xBD)-160 (0xA0)
Format : PCM
Format settings, Endianness : Big
Format settings, Sign : Signed
Muxing mode : DVD-Video
Duration : 9 min 35 s
Bit rate mode : Constant
Bit rate : 1 536 kb/s
Channel(s) : 2 channels
Sampling rate : 48.0 kHz
Bit depth : 16 bits
Delay relative to video : -715 ms
Stream size : 105 MiB (16%)
Скриншоты меню
Скриншоты
DVD2
Разбивка на главы по трекам: есть
Качество : BD=>DVD5
Формат: DVD video
Видео кодек: MPEG2
Аудио кодек: PCM, DTS, AC3
Видео: NTSC 16:9 (720x480) VBR Auto Letterboxed, 6631-6688(6800) Kbps, 29.970 fps
Аудио: English (LinearPCM, 2 ch), 1536 Kbps, 48.0 KHz
Аудио2: English (DTS, 6 ch), 1510 Kbps, 48.0 KHz (Live)
Аудио3: English (Dolby AC3, 2 ch), 192 Kbps, 48.0 KHz (Behid The Scenes)
DVDinfo+MI
Title: DVD2
Size: 3.79 Gb ( 3 978 402,00 KBytes ) - DVD-5
Enabled regions: 1, 2, 3, 4, 5, 6, 7, 8
VTS_01 :
Play Length: 00:28:05+00:03:29+00:05:25+00:03:18+00:03:54+00:03:02+00:03:53
Video: NTSC 16:9 (720x480) VBR, Auto Letterboxed
Audio:
English (LinearPCM, 2 ch)
English (DTS, 6 ch)
VTS_02 :
Play Length: 00:07:07
Video: NTSC 16:9 (720x480) VBR, Auto Letterboxed
Audio:
English (Dolby AC3, 2 ch)
* Menus Information *
VIDEO_TS Menu
Video:
NTSC 16:9 (720x480) VBR
Auto Letterboxed
Audio:
Not specified (Dolby AC3, 2 ch)
English Language Unit :
Title Menu
VTS_01 Menu
Video:
NTSC 16:9 (720x480) VBR
Auto Letterboxed
Audio:
Not specified (Dolby AC3, 2 ch)
English Language Unit :
Root Menu
VTS_02 Menu
Video:
NTSC 4:3 (720x480) VBR
Auto Pan&Scan, Auto Letterboxed
English Language Unit :
Root Menu
General
Complete name : N:\Music Video\DVD\Gregorian - Live! Masters Of Chant Final Chapter Tour\DVD2\VIDEO_TS\VIDEO_TS.BUP
Format : DVD Video
Format profile : Menu
File size : 12.0 KiB
Overall bit rate mode : Variable
FileExtension_Invalid : ifo
Video
ID : 224 (0xE0)
Format : MPEG Video
Format version : Version 2
Bit rate mode : Variable
Width : 720 pixels
Height : 480 pixels
Display aspect ratio : 16:9
Frame rate : 29.970 (29970/1000) FPS
Standard : NTSC
Compression mode : Lossy
Audio
Format : AC-3
Format/Info : Audio Coding 3
Channel(s) : 2 channels
Sampling rate : 48.0 kHz
Compression mode : Lossy
Text
Format : RLE
Format/Info : Run-length encoding
Bit depth : 2 bits
General
Complete name : N:\Music Video\DVD\Gregorian - Live! Masters Of Chant Final Chapter Tour\DVD2\VIDEO_TS\VIDEO_TS.IFO
Format : DVD Video
Format profile : Menu
File size : 12.0 KiB
Overall bit rate mode : Variable
Video
ID : 224 (0xE0)
Format : MPEG Video
Format version : Version 2
Bit rate mode : Variable
Width : 720 pixels
Height : 480 pixels
Display aspect ratio : 16:9
Frame rate : 29.970 (29970/1000) FPS
Standard : NTSC
Compression mode : Lossy
Audio
Format : AC-3
Format/Info : Audio Coding 3
Channel(s) : 2 channels
Sampling rate : 48.0 kHz
Compression mode : Lossy
Text
Format : RLE
Format/Info : Run-length encoding
Bit depth : 2 bits
General
Complete name : N:\Music Video\DVD\Gregorian - Live! Masters Of Chant Final Chapter Tour\DVD2\VIDEO_TS\VIDEO_TS.VOB
Format : MPEG-PS
File size : 6.08 MiB
Duration : 7 s 872 ms
Overall bit rate mode : Variable
Overall bit rate : 6 479 kb/s
Video
ID : 224 (0xE0)
Format : MPEG Video
Format version : Version 2
Format profile : [email protected]
Format settings, BVOP : Yes
Format settings, Matrix : Custom
Format settings, GOP : M=3, N=15
Duration : 80 ms
Bit rate mode : Variable
Bit rate : 6 126 kb/s
Width : 720 pixels
Height : 480 pixels
Display aspect ratio : 16:9
Frame rate : 29.970 (30000/1001) FPS
Standard : NTSC
Color space : YUV
Chroma subsampling : 4:2:0
Bit depth : 8 bits
Compression mode : Lossy
Bits/(Pixel*Frame) : 0.591
Stream size : 49.9 KiB (1%)
Color primaries : BT.601 NTSC
Transfer characteristics : BT.601
Matrix coefficients : BT.601
Audio
ID : 189 (0xBD)-128 (0x80)
Format : AC-3
Format/Info : Audio Coding 3
Format settings, Endianness : Big
Muxing mode : DVD-Video
Duration : 7 s 872 ms
Bit rate mode : Constant
Bit rate : 224 kb/s
Channel(s) : 2 channels
Channel positions : Front: L R
Sampling rate : 48.0 kHz
Frame rate : 31.250 FPS (1536 SPF)
Bit depth : 16 bits
Compression mode : Lossy
Stream size : 215 KiB (3%)
Service kind : Complete Main
Text
ID : 189 (0xBD)-32 (0x20)
Format : RLE
Format/Info : Run-length encoding
Muxing mode : DVD-Video
Menu
General
Complete name : N:\Music Video\DVD\Gregorian - Live! Masters Of Chant Final Chapter Tour\DVD2\VIDEO_TS\VTS_01_0.BUP
Format : DVD Video
Format profile : Program
File size : 56.0 KiB
Duration : 28 min 5 s
Overall bit rate mode : Variable
Overall bit rate : 272 b/s
FileExtension_Invalid : ifo
Video
ID : 224 (0xE0)
Format : MPEG Video
Format version : Version 2
Duration : 28 min 5 s
Bit rate mode : Variable
Width : 720 pixels
Height : 480 pixels
Display aspect ratio : 16:9
Frame rate : 29.970 (29970/1000) FPS
Standard : NTSC
Compression mode : Lossy
Audio #1
ID : 0 (0x0)
Format : PCM
Duration : 28 min 5 s
Channel(s) : 2 channels
Sampling rate : 48.0 kHz
Language : English
Audio #2
ID : 137 (0x89)
Format : DTS
Format/Info : Digital Theater Systems
Duration : 28 min 5 s
Channel(s) : 6 channels
Sampling rate : 48.0 kHz
Compression mode : Lossy
Language : English
Menu #1
Duration : 28 min 5 s
00:00:00.000 : Chapter 1
00:05:47.866 : Chapter 2
00:10:37.066 : Chapter 3
00:16:22.299 : Chapter 4
00:20:15.632 : Chapter 5
00:26:19.732 : Chapter 6
List (Audio) : 0 / 1
Menu #2
Duration : 3 min 29 s
00:00:00.000 : Chapter 1
List (Audio) : 0
General
Complete name : N:\Music Video\DVD\Gregorian - Live! Masters Of Chant Final Chapter Tour\DVD2\VIDEO_TS\VTS_01_0.IFO
Format : DVD Video
Format profile : Program
File size : 56.0 KiB
Duration : 28 min 5 s
Overall bit rate mode : Variable
Overall bit rate : 272 b/s
Video
ID : 224 (0xE0)
Format : MPEG Video
Format version : Version 2
Duration : 28 min 5 s
Bit rate mode : Variable
Width : 720 pixels
Height : 480 pixels
Display aspect ratio : 16:9
Frame rate : 29.970 (29970/1000) FPS
Standard : NTSC
Compression mode : Lossy
Audio #1
ID : 0 (0x0)
Format : PCM
Duration : 28 min 5 s
Channel(s) : 2 channels
Sampling rate : 48.0 kHz
Language : English
Audio #2
ID : 137 (0x89)
Format : DTS
Format/Info : Digital Theater Systems
Duration : 28 min 5 s
Channel(s) : 6 channels
Sampling rate : 48.0 kHz
Compression mode : Lossy
Language : English
Menu #1
Duration : 28 min 5 s
00:00:00.000 : Chapter 1
00:05:47.866 : Chapter 2
00:10:37.066 : Chapter 3
00:16:22.299 : Chapter 4
00:20:15.632 : Chapter 5
00:26:19.732 : Chapter 6
List (Audio) : 0 / 1
Menu #2
Duration : 3 min 29 s
00:00:00.000 : Chapter 1
List (Audio) : 0
General
Complete name : N:\Music Video\DVD\Gregorian - Live! Masters Of Chant Final Chapter Tour\DVD2\VIDEO_TS\VTS_01_0.VOB
Format : MPEG-PS
File size : 146 MiB
Duration : 1 min 20 s
Overall bit rate mode : Variable
Overall bit rate : 15.3 Mb/s
Video
ID : 224 (0xE0)
Format : MPEG Video
Format version : Version 2
Format profile : [email protected]
Format settings, BVOP : Yes
Format settings, Matrix : Default
Format settings, GOP : M=3, N=15
Duration : 1 min 20 s
Bit rate mode : Variable
Bit rate : 14.8 Mb/s
Maximum bit rate : 8 500 kb/s
Width : 720 pixels
Height : 480 pixels
Display aspect ratio : 16:9
Frame rate : 29.970 (30000/1001) FPS
Standard : NTSC
Color space : YUV
Chroma subsampling : 4:2:0
Bit depth : 8 bits
Scan type : Progressive
Compression mode : Lossy
Bits/(Pixel*Frame) : 1.432
Time code of first frame : 00:00:00:00
Time code source : Group of pictures header
GOP, Open/Closed : Closed
Stream size : 142 MiB (97%)
Color primaries : BT.470 System M
Transfer characteristics : BT.470 System M
Matrix coefficients : BT.470 System B, BT.470 System G
Audio
ID : 189 (0xBD)-128 (0x80)
Format : AC-3
Format/Info : Audio Coding 3
Format settings, Endianness : Big
Muxing mode : DVD-Video
Duration : 1 min 19 s
Bit rate mode : Constant
Bit rate : 192 kb/s
Channel(s) : 2 channels
Channel positions : Front: L R
Sampling rate : 48.0 kHz
Frame rate : 31.250 FPS (1536 SPF)
Bit depth : 16 bits
Compression mode : Lossy
Stream size : 1.83 MiB (1%)
Service kind : Complete Main
Text #1
ID : 189 (0xBD)-32 (0x20)
Format : RLE
Format/Info : Run-length encoding
Muxing mode : DVD-Video
Text #2
ID : 189 (0xBD)-34 (0x22)
Format : RLE
Format/Info : Run-length encoding
Muxing mode : DVD-Video
Menu
General
Complete name : N:\Music Video\DVD\Gregorian - Live! Masters Of Chant Final Chapter Tour\DVD2\VIDEO_TS\VTS_01_1.VOB
Format : MPEG-PS
File size : 1 024 MiB
Duration : 14 min 30 s
Overall bit rate mode : Variable
Overall bit rate : 9 873 kb/s
Video
ID : 224 (0xE0)
Format : MPEG Video
Format version : Version 2
Format profile : [email protected]
Format settings, BVOP : Yes
Format settings, Matrix : Custom
Format settings, GOP : Variable
Format settings, picture structure : Frame
Duration : 14 min 30 s
Bit rate mode : Variable
Bit rate : 6 631 kb/s
Maximum bit rate : 6 800 kb/s
Width : 720 pixels
Height : 480 pixels
Display aspect ratio : 16:9
Frame rate : 29.970 (30000/1001) FPS
Standard : NTSC
Color space : YUV
Chroma subsampling : 4:2:0
Bit depth : 8 bits
Scan type : Interlaced
Scan order : Top Field First
Compression mode : Lossy
Bits/(Pixel*Frame) : 0.640
Time code of first frame : 00:00:00:00
Time code source : Group of pictures header
GOP, Open/Closed : Open
GOP, Open/Closed of first frame : Closed
Stream size : 688 MiB (67%)
Audio #1
ID : 189 (0xBD)-137 (0x89)
Format : DTS
Format/Info : Digital Theater Systems
Mode : 16
Format settings, Endianness : Big
Muxing mode : DVD-Video
Duration : 14 min 29 s
Bit rate mode : Constant
Bit rate : 1 510 kb/s
Channel(s) : 6 channels
Channel positions : Front: L C R, Side: L R, LFE
Sampling rate : 48.0 kHz
Frame rate : 93.750 FPS (512 SPF)
Bit depth : 24 bits
Compression mode : Lossy
Stream size : 157 MiB (15%)
Audio #2
ID : 189 (0xBD)-160 (0xA0)
Format : PCM
Format settings, Endianness : Big
Format settings, Sign : Signed
Muxing mode : DVD-Video
Duration : 14 min 29 s
Bit rate mode : Constant
Bit rate : 1 536 kb/s
Channel(s) : 2 channels
Sampling rate : 48.0 kHz
Bit depth : 16 bits
Stream size : 159 MiB (16%)
Menu
General
Complete name : N:\Music Video\DVD\Gregorian - Live! Masters Of Chant Final Chapter Tour\DVD2\VIDEO_TS\VTS_01_2.VOB
Format : MPEG-PS
File size : 1 024 MiB
Overall bit rate mode : Variable
Video
ID : 224 (0xE0)
Format : MPEG Video
Format version : Version 2
Format profile : [email protected]
Format settings, BVOP : Yes
Format settings, Matrix : Custom
Format settings, GOP : Variable
Format settings, picture structure : Frame
Bit rate mode : Variable
Maximum bit rate : 6 800 kb/s
Width : 720 pixels
Height : 480 pixels
Display aspect ratio : 16:9
Frame rate : 29.970 (30000/1001) FPS
Standard : NTSC
Color space : YUV
Chroma subsampling : 4:2:0
Bit depth : 8 bits
Scan type : Interlaced
Scan order : Top Field First
Compression mode : Lossy
Time code of first frame : 00:14:29:04
Time code source : Group of pictures header
Audio #1
ID : 189 (0xBD)-137 (0x89)
Format : DTS
Format/Info : Digital Theater Systems
Mode : 16
Format settings, Endianness : Big
Muxing mode : DVD-Video
Bit rate mode : Constant
Bit rate : 1 510 kb/s
Channel(s) : 6 channels
Channel positions : Front: L C R, Side: L R, LFE
Sampling rate : 48.0 kHz
Frame rate : 93.750 FPS (512 SPF)
Bit depth : 24 bits
Compression mode : Lossy
Delay relative to video : -232 ms
Audio #2
ID : 189 (0xBD)-160 (0xA0)
Format : PCM
Format settings, Endianness : Big
Format settings, Sign : Signed
Muxing mode : DVD-Video
Bit rate mode : Constant
Bit rate : 1 536 kb/s
Channel(s) : 2 channels
Sampling rate : 48.0 kHz
Bit depth : 16 bits
Delay relative to video : -224 ms
Menu
General
Complete name : N:\Music Video\DVD\Gregorian - Live! Masters Of Chant Final Chapter Tour\DVD2\VIDEO_TS\VTS_01_3.VOB
Format : MPEG-PS
File size : 1 024 MiB
Duration : 57 s 541 ms
Overall bit rate mode : Variable
Overall bit rate : 149 Mb/s
Video
ID : 224 (0xE0)
Format : MPEG Video
Format version : Version 2
Format profile : [email protected]
Format settings, BVOP : Yes
Format settings, Matrix : Custom
Format settings, GOP : Variable
Format settings, picture structure : Frame
Duration : 57 s 324 ms
Bit rate mode : Variable
Bit rate : 145 Mb/s
Maximum bit rate : 6 800 kb/s
Width : 720 pixels
Height : 480 pixels
Display aspect ratio : 16:9
Frame rate : 29.970 (30000/1001) FPS
Standard : NTSC
Color space : YUV
Chroma subsampling : 4:2:0
Bit depth : 8 bits
Scan type : Interlaced
Scan order : Top Field First
Compression mode : Lossy
Bits/(Pixel*Frame) : 13.978
Time code of first frame : 00:00:55:15
Time code source : Group of pictures header
Stream size : 989 MiB (97%)
Audio
ID : 189 (0xBD)-160 (0xA0)
Format : PCM
Format settings, Endianness : Big
Format settings, Sign : Signed
Muxing mode : DVD-Video
Duration : 57 s 541 ms
Bit rate mode : Constant
Bit rate : 1 536 kb/s
Channel(s) : 2 channels
Sampling rate : 48.0 kHz
Bit depth : 16 bits
Delay relative to video : -486 ms
Stream size : 10.5 MiB (1%)
Menu
General
Complete name : N:\Music Video\DVD\Gregorian - Live! Masters Of Chant Final Chapter Tour\DVD2\VIDEO_TS\VTS_01_4.VOB
Format : MPEG-PS
File size : 302 MiB
Duration : 2 min 0 s
Overall bit rate mode : Variable
Overall bit rate : 21.0 Mb/s
Video
ID : 224 (0xE0)
Format : MPEG Video
Format version : Version 2
Format profile : [email protected]
Format settings, BVOP : Yes
Format settings, Matrix : Custom
Format settings, GOP : Variable
Format settings, picture structure : Frame
Duration : 2 min 0 s
Bit rate mode : Variable
Bit rate : 19.1 Mb/s
Maximum bit rate : 6 800 kb/s
Width : 720 pixels
Height : 480 pixels
Display aspect ratio : 16:9
Frame rate : 29.970 (30000/1001) FPS
Standard : NTSC
Color space : YUV
Chroma subsampling : 4:2:0
Bit depth : 8 bits
Scan type : Interlaced
Scan order : Top Field First
Compression mode : Lossy
Bits/(Pixel*Frame) : 1.843
Time code of first frame : 00:01:53:04
Time code source : Group of pictures header
Stream size : 274 MiB (91%)
Audio
ID : 189 (0xBD)-160 (0xA0)
Format : PCM
Format settings, Endianness : Big
Format settings, Sign : Signed
Muxing mode : DVD-Video
Duration : 1 min 56 s
Bit rate mode : Constant
Bit rate : 1 536 kb/s
Channel(s) : 2 channels
Sampling rate : 48.0 kHz
Bit depth : 16 bits
Delay relative to video : -623 ms
Stream size : 21.4 MiB (7%)
Menu
General
Complete name : N:\Music Video\DVD\Gregorian - Live! Masters Of Chant Final Chapter Tour\DVD2\VIDEO_TS\VTS_02_0.BUP
Format : DVD Video
Format profile : Program
File size : 16.0 KiB
Duration : 7 min 7 s
Overall bit rate mode : Variable
Overall bit rate : 307 b/s
FileExtension_Invalid : ifo
Video
ID : 224 (0xE0)
Format : MPEG Video
Format version : Version 2
Duration : 7 min 7 s
Bit rate mode : Variable
Width : 720 pixels
Height : 480 pixels
Display aspect ratio : 16:9
Frame rate : 29.970 (29970/1000) FPS
Standard : NTSC
Compression mode : Lossy
Audio
ID : 128 (0x80)
Format : AC-3
Format/Info : Audio Coding 3
Duration : 7 min 7 s
Channel(s) : 2 channels
Sampling rate : 48.0 kHz
Compression mode : Lossy
Language : English
Menu
Duration : 7 min 7 s
00:00:00.000 : Chapter 1
List (Audio) : 0
General
Complete name : N:\Music Video\DVD\Gregorian - Live! Masters Of Chant Final Chapter Tour\DVD2\VIDEO_TS\VTS_02_0.IFO
Format : DVD Video
Format profile : Program
File size : 16.0 KiB
Duration : 7 min 7 s
Overall bit rate mode : Variable
Overall bit rate : 307 b/s
Video
ID : 224 (0xE0)
Format : MPEG Video
Format version : Version 2
Duration : 7 min 7 s
Bit rate mode : Variable
Width : 720 pixels
Height : 480 pixels
Display aspect ratio : 16:9
Frame rate : 29.970 (29970/1000) FPS
Standard : NTSC
Compression mode : Lossy
Audio
ID : 128 (0x80)
Format : AC-3
Format/Info : Audio Coding 3
Duration : 7 min 7 s
Channel(s) : 2 channels
Sampling rate : 48.0 kHz
Compression mode : Lossy
Language : English
Menu
Duration : 7 min 7 s
00:00:00.000 : Chapter 1
List (Audio) : 0
General
Complete name : N:\Music Video\DVD\Gregorian - Live! Masters Of Chant Final Chapter Tour\DVD2\VIDEO_TS\VTS_02_1.VOB
Format : MPEG-PS
File size : 358 MiB
Duration : 7 min 7 s
Overall bit rate mode : Variable
Overall bit rate : 7 020 kb/s
Video
ID : 224 (0xE0)
Format : MPEG Video
Format version : Version 2
Format profile : [email protected]
Format settings, BVOP : Yes
Format settings, Matrix : Custom
Format settings, GOP : Variable
Format settings, picture structure : Frame
Duration : 7 min 7 s
Bit rate mode : Variable
Bit rate : 6 688 kb/s
Maximum bit rate : 6 800 kb/s
Width : 720 pixels
Height : 480 pixels
Display aspect ratio : 16:9
Frame rate : 29.970 (30000/1001) FPS
Standard : NTSC
Color space : YUV
Chroma subsampling : 4:2:0
Bit depth : 8 bits
Scan type : Interlaced
Scan order : Top Field First
Compression mode : Lossy
Bits/(Pixel*Frame) : 0.646
Time code of first frame : 00:00:00:00
Time code source : Group of pictures header
Stream size : 341 MiB (95%)
Audio
ID : 189 (0xBD)-128 (0x80)
Format : AC-3
Format/Info : Audio Coding 3
Format settings, Endianness : Big
Muxing mode : DVD-Video
Duration : 7 min 7 s
Bit rate mode : Constant
Bit rate : 192 kb/s
Channel(s) : 2 channels
Channel positions : Front: L R
Sampling rate : 48.0 kHz
Frame rate : 31.250 FPS (1536 SPF)
Bit depth : 16 bits
Compression mode : Lossy
Stream size : 9.77 MiB (3%)
Service kind : Complete Main
Скриншоты меню
Релиз:
Download
Для скачивания .torrent файлов необходима регистрация
Сайт не распространяет и не хранит электронные версии произведений, а лишь предоставляет доступ к создаваемому пользователями каталогу ссылок на торрент-файлы, которые содержат только списки хеш-сумм
[Профиль]  [ЛС] 
 
Ответить
Loading...
Error